Падение Крэйсов / The Fall of the Krays (Закари Адлер / Zackary Adler) [2016, Великобритания, криминал, HDRip] MVO

Киноновинки, новинки кинопроката, горячие новинки

Модератор: Модераторы видео

  • Статистика раздачи
Размер: 1.44 ГБ   |  Зарегистрирован: 05 апр 2016, 12:24   |   .torrent скачан: 5 раз
Сидеров: 3  [ 0 байт/сек ]     Личеров: 0  [ 0 байт/сек ]  
Список файлов : Кто скачал : Раздают : Скачивают : Кто благодарил : История : Не раздающие : Запрашивали сидеров : Внешние трекеры 
  

Падение Крэйсов / The Fall of the Krays (Закари Адлер / Zackary Adler) [2016, Великобритания, криминал, HDRip] MVO

Сообщение Фаромир брат » 05 апр 2016, 12:24

Падение Крэйсов / The Fall of the Krays


Страна: Великобритания
Жанр: криминал
Год выпуска: 2016
Продолжительность: 01:51:35

Перевод: Любительский двухголосый
Cубтитры: нет
Оригинальная аудиодорожка: нет

Режиссер: Закари Адлер / Zackary Adler

В ролях: Адриан Буше, Кевин Лесли, Джордж Уэбстер, Алекса Булл, Саймон Коттон, Пол Блэкуэлл, Джош Майерс, Филип Ховард, Йен Кейр Аттард, Ричард Бэнкс

Описание: Взгляд близкого друга на историю братьев-близнецов, выросших в неизвестной спецшколе и ставших самыми опасными людьми в Британии, о их подъеме на криминальный олимп и падении...
Качество видео: HDRip [BDRip 1080p]
Формат видео: AVI
Видео: 720x400 (1.80:1), 25 fps, XviD build 65 ~1653 kbps avg, 0.23 bit/pixel
Аудио: 48 kHz, AC3 Dolby Digital, 2/0 (L,R) ch, ~192 kbps


General
Complete name : C:\Users\Никита\Desktop\падение крейсов.avi
Format : AVI
Format/Info : Audio Video Interleave
File size : 1.44 GiB
Duration : 1h 51mn
Overall bit rate : 1 855 Kbps
Writing application : VirtualDubMod 1.5.10.2 (build 2540/release)
Writing library : VirtualDubMod build 2540/release

Video
ID : 0
Format : MPEG-4 Visual
Format profile : Advanced Simple@L5
Format settings, BVOP : 2
Format settings, QPel : No
Format settings, GMC : No warppoints
Format settings, Matrix : Custom
Codec ID : XVID
Codec ID/Hint : XviD
Duration : 1h 51mn
Bit rate : 1 653 Kbps
Width : 720 pixels
Height : 400 pixels
Display aspect ratio : 16:9
Frame rate : 25.000 fps
Color space : YUV
Chroma subsampling : 4:2:0
Bit depth : 8 bits
Scan type : Progressive
Compression mode : Lossy
Bits/(Pixel*Frame) : 0.230
Stream size : 1.28 GiB (89%)
Writing library : XviD 65

Audio
ID : 1
Format : AC-3
Format/Info : Audio Coding 3
Mode extension : CM (complete main)
Format settings, Endianness : Big
Codec ID : 2000
Duration : 1h 51mn
Bit rate mode : Constant
Bit rate : 192 Kbps
Channel(s) : 2 channels
Channel positions : Front: L R
Sampling rate : 48.0 KHz
Frame rate : 31.250 fps (1536 spf)
Compression mode : Lossy
Stream size : 153 MiB (10%)
Alignment : Split accross interleaves
Interleave, duration : 40 ms (1.00 video frame)
Interleave, preload duratio : 500 ms
   
Торрент: Зарегистрирован [05 апр 2016, 12:24] Скачать торрент
Скачать торрент
О MediaGet
[ Размер 15 КБ / Просмотров 70 ]

Статус:
 
Приватный: Нет (DHT включён)
Размер: 1.44 ГБ (1 547 735 040 байт)
   
Аватара пользователя

Супермодератор
Супермодератор
 
Раздал: 24.31 ТБ
Скачал: 1.71 ТБ
Ратио: 20.899
Сообщения: 7775
Фото: 123
Зарегистрирован: 26 ноя 2012, 17:20
Medals: 2
1000 раздач! (1) Меценат №2 (1)

Вернуться в Фильмы 2016 (новинки)

Кто сейчас на конференции

Зарегистрированные пользователи: Dom_777, kilinbel, leomartin, Nolimit, sergej-asd

Ресурс не предоставляет электронные версии произведений, а занимается лишь коллекционированием и каталогизацией ссылок, присылаемых и публикуемых на форуме нашими читателями. Если вы являетесь правообладателем какого-либо представленного материала и не желаете чтобы ссылка на него находилась в нашем каталоге, свяжитесь с нами и мы незамедлительно удалим её. Файлы для обмена на трекере предоставлены пользователями сайта, и администрация не несёт ответственности за их содержание. Просьба не заливать файлы, защищенные авторскими правами, а также файлы нелегального содержания!
cron