Физрук / Сезон: 3 / Серии: 1-2 из 20 (Сергей Сенцов) [2016, Комедия, SATRip]

Киноновинки, новинки кинопроката, горячие новинки

Модератор: Модераторы видео

Физрук / Сезон: 3 / Серии: 1-2 из 20 (Сергей Сенцов) [2016, Комедия, SATRip]

Сообщение Админ » 05 апр 2016, 03:07

Физрук

Год выпуска: 2016
Производство: Россия, Good Story Media по заказу ТНТ
Жанр: Комедия
Продолжительность: 00:24:00
Субтитры: нет
Режиссёр: Сергей Сенцов
В ролях: Дмитрий Нагиев, Александр Гордон (II), Полина Гренц, Анастасия Панина, Владимир Сычёв, Даниил Вахрушев, Андрей Крыжний, Артур Сопельник, Оксана Сидоренко, Карина Мишулина
Описание: Во время финального судебного заседания с Олега Евгеньевича Фомина снимают все обвинения. Оказавшись на свободе, он видит, что жизнь его друзей и близких сильно изменилась. У Психа кризис среднего возраста, Таня строит новые отношения, а Саша Мамаева была вынуждена отдать бизнес отца Лене и теперь едва сводит концы с концами. Когда Фома узнает, что в истории с бизнесом Мамая снова замешана Лена, он понимает, что его долг — вернуть все обратно Саше как законной наследнице. Но сделать это будет очень непросто: на стороне Лены деньги, связи и армия головорезов, зато в арсенале Фомы надежная команда и новая невероятная схема, в которой замешаны школа, Татьяна Александровна и даже президент России. Фома собирает вместе всю старую банду, а также призывает на помощь своего нового друга Мишу по кличке Буддист. Он не просто хороший знакомый Фомы, а его наставник и духовник. Продвигаясь к цели, Фома будет отвечать на многочисленные вопросы Буддиста, главные из которых «Кто я?» и «Каково мое место в мире?». Все вместе они отправятся на поиски истины, счастья и справедливости. Вместо трех у них на всех всего одно заветное желание, и компаньоны уверены, что оно обязательно сбудется.
[img]http://s017.radikal.ru/i420/1604/b7/0dbcd352cdb9.jpg[/img]

Качество: SATRip
Формат: AVI
Видео кодек: XviD
Аудио кодек: MP3
Видео: 720x400 (16:9), 25.000 fps, XviD 67, 1463 Kbps, 0.203 bit/pixel
Аудио: 48.0 kHz, MP3, 2 ch, 192 Kbps
General
Complete name : Downloads\Физрук. Сезон 3. 2016 SATRip
Format : AVI
Format/Info : Audio Video Interleave
File size : 282 MiB
Duration : 23mn 42s
Overall bit rate : 1 665 Kbps
Writing application : VirtualDubMod 1.5.10.3 (build 2550/release)
Writing library : VirtualDubMod build 2550/release
Video #0
ID : 0
Format : MPEG-4 Visual
Format profile : Advanced Simple@L5
Format settings, BVOP : 1
Format settings, QPel : No
Format settings, GMC : No warppoints
Format settings, Matrix : Default (H.263)
Codec ID : XVID
Codec ID/Hint : XviD
Duration : 23mn 42s
Bit rate : 1 463 Kbps
Width : 720 pixels
Height : 400 pixels
Display aspect ratio : 16:9
Frame rate : 25.000 fps
Color space : YUV
Chroma subsampling : 4:2:0
Bit depth : 8 bits
Scan type : Progressive
Compression mode : Lossy
Bits/(Pixel*Frame) : 0.203
Stream size : 248 MiB (88%)
Writing library : XviD 67
Audio #1
ID : 1
Format : MPEG Audio
Format version : Version 1
Format profile : Layer 3
Mode : Joint stereo
Mode extension : MS Stereo
Codec ID : 55
Codec ID/Hint : MP3
Duration : 23mn 42s
Bit rate mode : Constant
Bit rate : 192 Kbps
Channel(s) : 2 channels
Sampling rate : 48.0 KHz
Compression mode : Lossy
Stream size : 32.5 MiB (12%)
Alignment : Split accross interleaves
Interleave, duration : 40 ms (1.00 video frame)
Interleave, preload duration : 500 ms
Writing library : LAME3.99.5
(1) остановить скачивание,
(2) удалить старый торрент у себя из клиента (старые серии удалять не надо),
(3) скачать новый торрент и запустить его у себя в клиенте вместо старого, при этом указать клиенту путь в старую папку куда и должно происходить скачивание новых серий.
Ваш клиент при этом должен произвести хеширование (проверку) старой папки (если не производит сам - помогите ему сделать это), и будет докачивать только те серии которых у вас ещё нет. Старые серии при этом не удаляются, а продолжают раздаваться!
Eсли вы уже удалили старые серии, то предотвратить повторную закачку старых серий можно, отжав галочку в соответсвующих местах при запуске нового торрента. По возможности, желательно не удалять старые серии как можно дольше чтобы релизёр не столько продолжал раздавать старые серии, а смог сконцентрироваться на новых
.

Как качать и Как раздавать · Правила, инструкции, FAQ-и

Торрент: Зарегистрирован [ 04-Апр-16 15:41 ] · Скачан: 4915 раз

[img]http://rutracker.org/static.t-ru.org/templates/v1/images/attach_big.gif[/img]

Скачать .torrent12 KB
Тип: обычная
Статус: √
Размер: 576.8 MB · 
 
Сравнение с раздачей: [img]http://rutracker.org/static.t-ru.org/templates/v1/images/icon_close.png[/img]

эта раздачаразмерсравниваемая раздачаСвернуть поддиректорииРазвернутьПереключить
Свернуть/разв. окно[/spoiler]
загружается...[/spoiler]

[/spoiler]

Скорость инета маленькая, раздаю медленно.[/spoiler]

  
[img]http://rutracker.org/static.t-ru.org/ranks/s_mod.gif[/img][img]http://rutracker.org/static.t-ru.org/avatars/0/18/880718.jpg[/img]Стаж: 8 лет 11 месяцевСообщений: 9120 [img]http://rutracker.org/static.t-ru.org/templates/v1/images/icon_minipost.gif[/img](спустя 12 минут)[Цитировать] [/spoiler]
Вложения
torrent_5202341.torrent
(11.81 КБ) Скачиваний: 19
Аватара пользователя

Администратор
Администратор
 
Раздал: 2.29 ПБ
Скачал: 1.01 ПБ
Ратио: 2.266
Сообщения: 2960
Зарегистрирован: 07 май 2010, 17:29
Medals: 1
Лучший релиз за месяц (1)
  • Личное сообщение
  • ICQ

Вернуться в Фильмы 2016 (новинки)

Кто сейчас на конференции

Зарегистрированные пользователи: Starsnerus x 1

Ресурс не предоставляет электронные версии произведений, а занимается лишь коллекционированием и каталогизацией ссылок, присылаемых и публикуемых на форуме нашими читателями. Если вы являетесь правообладателем какого-либо представленного материала и не желаете чтобы ссылка на него находилась в нашем каталоге, свяжитесь с нами и мы незамедлительно удалим её. Файлы для обмена на трекере предоставлены пользователями сайта, и администрация не несёт ответственности за их содержание. Просьба не заливать файлы, защищенные авторскими правами, а также файлы нелегального содержания!