Затмение / Regression (Алехандро Аменабар / Alejandro Amenábar) [2015, Испания, Канада, триллер, драма, криминал, детектив, BDRip] Dub (iTunes)

Киноновинки, новинки кинопроката, горячие новинки

Модератор: Модераторы видео

  • Статистика раздачи
Размер: 1.41 ГБ   |  Зарегистрирован: 04 апр 2016, 00:00   |   .torrent скачан: 9 раз
Сидеров: 66  [ 0 байт/сек ]     Личеров: 0  [ 0 байт/сек ]  
Список файлов : Кто скачал : Раздают : Скачивают : Кто благодарил : История : Не раздающие : Запрашивали сидеров : Внешние трекеры 
  

Затмение / Regression (Алехандро Аменабар / Alejandro Amenábar) [2015, Испания, Канада, триллер, драма, криминал, детектив, BDRip] Dub (iTunes)

Сообщение Админ » 04 апр 2016, 00:00


Затмение / Regression

«Страх всегда находит свою жертву»


Страна: Испания, Канада
Жанр: триллер, драма, криминал, детектив
Год выпуска: 2015
Продолжительность: 01:46:04
Перевод: Профессиональный (дублированный) iTunes
Cубтитры: нет
Оригинальная аудиодорожка: Английская
Режиссер: Алехандро Аменабар / Alejandro Amenábar
В ролях: Эмма Уотсон, Итан Хоук, Дэвид Тьюлис, Девон Бостик, Аарон Эшмор, Дейл Дикки, Давид Денсик, Аарон Абрамс, Кристиан Бруун, Адам Батчер
Описание: В ходе расследования дела Анджелы Грей детектив Брюс Киннер вынужден обратиться к психологу для выявления ее подавленных воспоминаний. Сеанс регрессивного гипноза открывает ужасающие факты - по ночам с согласия отца над девушкой проводились сатанинские ритуалы. Желая защитить девушку от преследования зловещего тайного общества, детектив оказывается втянут в пугающий мир оккультизма. То, что ему противостоит, находится за гранью понимания и способно бросить вызов его убеждениям и вере.


Релиз: Twi7ter
Качество видео: BDRip (исх. Regression 2015 COMPLETE BLURAY-PCH)
Формат видео: AVI
Видео: XviD, 720x304 (2.35:1), 23.976 fps, ~1515 kbps avg, 0.28 bit/pixel
Аудио 1: 48 kHz, AC3 Dolby Digital, 3/2 (L,C,R,l,r) + LFE ch, ~384 kbps avg
Complete name : D:\РАЗДАЧИ\Zatmenie.2015.D.BDRip_by_Twi7ter.avi
Format : AVI
Format/Info : Audio Video Interleave
File size : 1.41 GiB
Duration : 1h 46mn
Overall bit rate : 1 908 Kbps
Movie name : Zatmenie.2015.D.BDRip_by_Twi7ter
Director : Twi7ter
Genre : Horror/Thriller
Writing application : VirtualDubMod 1.5.10.3 (build 2550/release)
Original source form/Name : Movie

Video
ID : 0
Format : MPEG-4 Visual
Format profile : Advanced Simple@L5
Format settings, BVOP : 2
Format settings, QPel : No
Format settings, GMC : No warppoints
Format settings, Matrix : Custom
Codec ID : XVID
Codec ID/Hint : XviD
Duration : 1h 46mn
Bit rate : 1 515 Kbps
Width : 720 pixels
Height : 304 pixels
Display aspect ratio : 2.35:1
Frame rate : 23.976 (24000/1001) fps
Color space : YUV
Chroma subsampling : 4:2:0
Bit depth : 8 bits
Scan type : Progressive
Compression mode : Lossy
Bits/(Pixel*Frame) : 0.289
Stream size : 1.12 GiB (79%)
Writing library : XviD 73

Audio
ID : 1
Format : AC-3
Format/Info : Audio Coding 3
Mode extension : CM (complete main)
Format settings, Endianness : Big
Codec ID : 2000
Duration : 1h 46mn
Bit rate mode : Constant
Bit rate : 384 Kbps
Channel(s) : 6 channels
Channel positions : Front: L C R, Side: L R, LFE
Sampling rate : 48.0 KHz
Frame rate : 31.250 fps (1536 spf)
Compression mode : Lossy
Stream size : 291 MiB (20%)
Alignment : Split accross interleaves
Interleave, duration : 42 ms (1.00 video frame)
Interleave, preload duratio : 500 ms
   
Торрент: Зарегистрирован [04 апр 2016, 00:00] Скачать торрент
Скачать торрент
О MediaGet
[ Размер 14.7 КБ / Просмотров 95 ]

Статус:
 
Приватный: Нет (DHT включён)
Размер: 1.41 ГБ (1 517 948 928 байт)
   
Аватара пользователя

Администратор
Администратор
 
Раздал: 2.3 ПБ
Скачал: 1.01 ПБ
Ратио: 2.268
Сообщения: 2977
Зарегистрирован: 07 май 2010, 17:29
Medals: 1
Лучший релиз за месяц (1)
  • Личное сообщение
  • ICQ

Вернуться в Фильмы 2016 (новинки)

Кто сейчас на конференции

Зарегистрированные пользователи: sergey_tr, ЗУРБАГАН

Ресурс не предоставляет электронные версии произведений, а занимается лишь коллекционированием и каталогизацией ссылок, присылаемых и публикуемых на форуме нашими читателями. Если вы являетесь правообладателем какого-либо представленного материала и не желаете чтобы ссылка на него находилась в нашем каталоге, свяжитесь с нами и мы незамедлительно удалим её. Файлы для обмена на трекере предоставлены пользователями сайта, и администрация не несёт ответственности за их содержание. Просьба не заливать файлы, защищенные авторскими правами, а также файлы нелегального содержания!
cron