Украденное счастье / Серии: 1-4 из 4 (Максим Бриус) [2016, Россия, Мелодрама, HDTVRip]

Киноновинки, новинки кинопроката, горячие новинки

Модератор: Модераторы видео

  • Статистика раздачи
Размер: 2.74 ГБ   |  Зарегистрирован: 03 апр 2016, 23:01   |   .torrent скачан: 0 раз
Сидеров: 0  [ 0 байт/сек ]     Личеров: 0  [ 0 байт/сек ]  
Список файлов : Кто скачал : Раздают : Скачивают : Кто благодарил : История : Не раздающие : Запрашивали сидеров : Внешние трекеры 
  

Украденное счастье / Серии: 1-4 из 4 (Максим Бриус) [2016, Россия, Мелодрама, HDTVRip]

Сообщение Админ » 03 апр 2016, 23:03

Украденное счастье




Производитель : Россия, ООО "Алдан-Фильм"
Жанр: Мелодрама
Год выпуска: 2016
Продолжительность: 50 мин.
Cубтитры: нет

Режиссер: Максим Бриус
В ролях: Марина Денисова, Илья Оболонков, Юлия Кудояр, Виктор Рыбчинский, Ирина Шевчук, Игорь Степанов, Полина Стефанович, Лариса Маршалова, Елена Иванникова, Юлианна Михневич
Описание: У Веры идеальный брак. Она заботливая домохозяйка и отлично справляется со своей главной задачей – угождать и создавать жизненный комфорт своему мужу Борису, музыканту и преподавателю консерватории. Так бы и жила Вера немного скучной и стабильной жизнью, если бы не младшая сестра Ника, неожиданно и бесцеремонно вторгшаяся в семейную идиллию. Вера не рада неожиданному визиту и не без причины. Они с сестрой стали чужими друг другу после того, как Ника «украла» Верино счастье, отбила у сестры жениха, ее первую «школьную любовь». Теперь Ника рассталась с мужем и снова в «активном поиске». И, как несколько лет назад, выбор Ники вновь падает на избранника Веры. Кажется, эта история повторяется вновь. Но на этот раз Вера не сдается. Она попытается вернуть свое «украденное счастье»…

Сэмпл

Качество: HDTVRip
Формат: AVI
Видео кодек: XviD
Аудио кодек: AC3
Видео: 720x400 (1.80:1), 25 fps, XviD build 73 ~1854 kbps avg, 0.22 bit/pixel
Аудио: 48 kHz, AC3 Dolby Digital, 2/0 (L,R) ch, ~192.00 kbps avg
General
Complete name : X:\раздачи\Ukradennoe schate.2015.HDTVRip.RG.Russkie.serialy.&.Files-x\01.Ukradennoe schate.2015.HDTVRip.RG.Russkie.serialy.&.Files-x.avi
Format : AVI
Format/Info : Audio Video Interleave
File size : 1.37 GiB
Duration : 1h 34mn
Overall bit rate : 2 084 Kbps
Writing application : VirtualDubMod 1.5.10.3 | http://www.virtualdub-fr.org || (build 2550/release)
Writing library : VirtualDubMod build 2550/release

Video
ID : 0
Format : MPEG-4 Visual
Format profile : Advanced Simple@L5
Format settings, BVOP : 1
Format settings, QPel : No
Format settings, GMC : No warppoints
Format settings, Matrix : Custom
Codec ID : XVID
Codec ID/Hint : XviD
Duration : 1h 34mn
Bit rate : 1 883 Kbps
Width : 720 pixels
Height : 400 pixels
Display aspect ratio : 16:9
Frame rate : 25.000 fps
Color space : YUV
Chroma subsampling : 4:2:0
Bit depth : 8 bits
Scan type : Progressive
Compression mode : Lossy
Bits/(Pixel*Frame) : 0.261
Stream size : 1.24 GiB (90%)
Writing library : XviD 73

Audio
ID : 1
Format : AC-3
Format/Info : Audio Coding 3
Mode extension : CM (complete main)
Format settings, Endianness : Big
Codec ID : 2000
Duration : 1h 34mn
Bit rate mode : Constant
Bit rate : 192 Kbps
Channel(s) : 2 channels
Channel positions : Front: L R
Sampling rate : 48.0 KHz
Frame rate : 31.250 fps (1536 spf)
Compression mode : Lossy
Stream size : 129 MiB (9%)
Alignment : Split accross interleaves
Interleave, duration : 40 ms (1.00 video frame)
Interleave, preload duration : 500 ms
   
Торрент: Зарегистрирован [03 апр 2016, 23:01] Скачать торрент
Скачать торрент
О MediaGet
[ Размер 14.35 КБ / Просмотров 67 ]

Статус:
 
Приватный: Нет (DHT включён)
Размер: 2.74 ГБ (2 939 250 688 байт)
   
Аватара пользователя

Администратор
Администратор
 
Раздал: 2.3 ПБ
Скачал: 1.01 ПБ
Ратио: 2.270
Сообщения: 2997
Зарегистрирован: 07 май 2010, 17:29
Medals: 1
Лучший релиз за месяц (1)
  • Личное сообщение
  • ICQ

Вернуться в Фильмы 2016 (новинки)

Кто сейчас на конференции

Зарегистрированные пользователи: MOBILE666, Nolimit

Ресурс не предоставляет электронные версии произведений, а занимается лишь коллекционированием и каталогизацией ссылок, присылаемых и публикуемых на форуме нашими читателями. Если вы являетесь правообладателем какого-либо представленного материала и не желаете чтобы ссылка на него находилась в нашем каталоге, свяжитесь с нами и мы незамедлительно удалим её. Файлы для обмена на трекере предоставлены пользователями сайта, и администрация не несёт ответственности за их содержание. Просьба не заливать файлы, защищенные авторскими правами, а также файлы нелегального содержания!
cron