Театр призраков / Gekijo rei (Хидео Наката / Hideo Nakata) [2015, Япония, Ужасы, WEB-DLRip] Dub (Line)

Киноновинки, новинки кинопроката, горячие новинки

Модератор: Модераторы видео

  • Статистика раздачи
Размер: 1.37 ГБ   |  Зарегистрирован: 03 апр 2016, 22:56   |   .torrent скачан: 5 раз
Сидеров: 69  [ 0 байт/сек ]     Личеров: 0  [ 0 байт/сек ]  
Список файлов : Кто скачал : Раздают : Скачивают : Кто благодарил : История : Не раздающие : Запрашивали сидеров : Внешние трекеры 
  

Театр призраков / Gekijo rei (Хидео Наката / Hideo Nakata) [2015, Япония, Ужасы, WEB-DLRip] Dub (Line)

Сообщение Админ » 03 апр 2016, 22:57


Театр призраков
Gekijo rei
«Все начнется после третьего звонка»


Страна: Япония
Жанр: Ужасы
Год выпуска: 2015
Продолжительность: 01:35:16
Перевод: Профессиональный (дублированный) Line
Cубтитры: нет
Режиссер: Хидео Наката / Hideo Nakata
В ролях: Рика Адачи, Кейта Мачида, Харука Шимазаки, Рихо Такаги, Икудзи Накамура, Мантаро Коити, Рэйта Сэридзава, Асахи Ёсида, Рё Сегава, Юрэй Янаги
Описание: Говорят, что у кукол, сделанных настоящими мастерами своего дела, тоже есть душа. Такая кукла впитывает в себя эмоции своего создателя и бывших хозяев, но иногда она может стать настоящим проклятием. Сара — молодая амбициозная актриса, но все, что ей предлагают — лишь небольшие роли в эпизодах телевизионных сериалов. Чтобы как-то заявить о себе она решает принять участие в крупной театральной постановке. Она еще не знает, что этот проект может стать для нее последним, ведь одна из главных ролей в спектакле отведена кукле со страшной и кровавой историей.
Доп. информация: Без рекламы!

Качество видео: WEB-DLRip
Формат видео: AVI
Видео: XviD 720x400 (16:9), 23.976 fps, ~1664 kbps avg, 0.231 bit/pixel
Аудио: 48 kHz, AC3 Dolby Digital, 2/0 (L,R) ch, ~384kbps - RUS
General
Complete name : D:\Фильмы\Teatr.Prizrakov.2015.D.WEB-DLRip.avi
Format : AVI
Format/Info : Audio Video Interleave
File size : 1.37 GiB
Duration : 1h 35mn
Overall bit rate : 2 058 Kbps
Writing application : VirtualDubMod 1.5.10.3 | http://www.virtualdub-fr.org || (build 2550/release)
Writing library : VirtualDubMod build 2550/release

Video
ID : 0
Format : MPEG-4 Visual
Format profile : Advanced Simple@L5
Format settings, BVOP : 2
Format settings, QPel : No
Format settings, GMC : No warppoints
Format settings, Matrix : Custom
Codec ID : XVID
Codec ID/Hint : XviD
Duration : 1h 35mn
Bit rate : 1 664 Kbps
Width : 720 pixels
Height : 400 pixels
Display aspect ratio : 16:9
Frame rate : 25.000 fps
Color space : YUV
Chroma subsampling : 4:2:0
Bit depth : 8 bits
Scan type : Progressive
Compression mode : Lossy
Bits/(Pixel*Frame) : 0.231
Stream size : 1.11 GiB (81%)
Writing library : XviD 1.2.1 (UTC 2008-12-04)

Audio
ID : 1
Format : AC-3
Format/Info : Audio Coding 3
Mode extension : CM (complete main)
Format settings, Endianness : Big
Codec ID : 2000
Duration : 1h 35mn
Bit rate mode : Constant
Bit rate : 384 Kbps
Channel(s) : 2 channels
Channel positions : Front: L R
Sampling rate : 48.0 KHz
Frame rate : 31.250 fps (1536 spf)
Compression mode : Lossy
Stream size : 262 MiB (19%)
Alignment : Split accross interleaves
Interleave, duration : 40 ms (1.00 video frame)
Interleave, preload duratio : 500 ms




   
Торрент: Зарегистрирован [03 апр 2016, 22:56] Скачать торрент
Скачать торрент
О MediaGet
[ Размер 14.27 КБ / Просмотров 76 ]

Статус:
 
Приватный: Нет (DHT включён)
Размер: 1.37 ГБ (1 470 384 128 байт)
   
Аватара пользователя

Администратор
Администратор
 
Раздал: 2.29 ПБ
Скачал: 1.01 ПБ
Ратио: 2.266
Сообщения: 2960
Зарегистрирован: 07 май 2010, 17:29
Medals: 1
Лучший релиз за месяц (1)
  • Личное сообщение
  • ICQ

Вернуться в Фильмы 2016 (новинки)

Кто сейчас на конференции

Зарегистрированные пользователи: Starsnerus x 1

Ресурс не предоставляет электронные версии произведений, а занимается лишь коллекционированием и каталогизацией ссылок, присылаемых и публикуемых на форуме нашими читателями. Если вы являетесь правообладателем какого-либо представленного материала и не желаете чтобы ссылка на него находилась в нашем каталоге, свяжитесь с нами и мы незамедлительно удалим её. Файлы для обмена на трекере предоставлены пользователями сайта, и администрация не несёт ответственности за их содержание. Просьба не заливать файлы, защищенные авторскими правами, а также файлы нелегального содержания!
cron