Я знаю твои секреты / Серии: 1-4 из 4 (Андрей Верещагин) [2015, Россия, Мелодрама, WEBRip]

Киноновинки, новинки кинопроката, горячие новинки

Модератор: Модераторы видео

  • Статистика раздачи
Размер: 2.34 ГБ   |  Зарегистрирован: 03 апр 2016, 22:50   |   .torrent скачан: 1 раз
Сидеров: 25  [ 0 байт/сек ]     Личеров: 0  [ 0 байт/сек ]  
Список файлов : Кто скачал : Раздают : Скачивают : Кто благодарил : История : Не раздающие : Запрашивали сидеров : Внешние трекеры 
  

Я знаю твои секреты / Серии: 1-4 из 4 (Андрей Верещагин) [2015, Россия, Мелодрама, WEBRip]

Сообщение Админ » 03 апр 2016, 22:53

Я знаю твои секреты

Год выпуска: 2015
Производство: Россия, ООО "Студия Про100 Фильм"
Жанр: Мелодрама
Продолжительность: ~0:44:00 серия
Субтитры: нет

Режиссер: Андрей Верещагин
В ролях: Агата Муцениеце, Михаил Пшеничный, Алёна Яковлева, Влад Петров

Описание:
Нина - блестящий специалист по физиогномике, она безошибочно определяет, когда человек лжет. Однажды она находит в кафе паспорт мужчины с вложенным номером телефона, звонит по нему и встречается с женщиной, которая обещает передать документ мужу. Но по ее лицу Нина видит: женщина лжет. С этого момента жизнь Нины круто меняется - на нее начинается охота. Следователь Скворцов, к которому обращается девушка, поначалу принимает этот рассказ за больную фантазию. Но когда преступники убивают бывшего жениха Нины и похищают мать, Скворцов становится главным защитником девушки. Вот только опасность грозит не только ей...



Качество: WEBRip
Формат: AVI
Видео кодек: XviD
Аудио кодек: АС-3
Видео: 720x384 (1.80:1), 25 fps, XviD build 50 ~1550 kbps avg, 0.214 bit/pixel
Аудио: 48 kHz, AC3 Dolby Digital, 2/0 (L,R) ch, ~192.00 kbps avg

Сторонней рекламы нет!
General
Complete name : X:\раздачи\Я знаю твои секреты.2015.WEB-DLRip.RG.Russkie.serialy.&.Files-x\03.Я знаю твои секреты.2015.WEB-DLRip.RG.Russkie.serialy.&.Files-x.avi
Format : AVI
Format/Info : Audio Video Interleave
File size : 600 MiB
Duration : 45mn 11s
Overall bit rate : 1 856 Kbps
Writing application : VirtualDubMod 1.5.10.3 | http://www.virtualdub-fr.org || (build 2550/release)
Writing library : VirtualDubMod build 2550/release

Video
ID : 0
Format : MPEG-4 Visual
Format profile : Advanced Simple@L5
Format settings, BVOP : 1
Format settings, QPel : No
Format settings, GMC : No warppoints
Format settings, Matrix : Custom
Codec ID : XVID
Codec ID/Hint : XviD
Duration : 45mn 11s
Bit rate : 1 654 Kbps
Width : 720 pixels
Height : 400 pixels
Display aspect ratio : 16:9
Frame rate : 25.000 fps
Color space : YUV
Chroma subsampling : 4:2:0
Bit depth : 8 bits
Scan type : Progressive
Compression mode : Lossy
Bits/(Pixel*Frame) : 0.230
Stream size : 535 MiB (89%)
Writing library : XviD 73

Audio
ID : 1
Format : AC-3
Format/Info : Audio Coding 3
Mode extension : CM (complete main)
Format settings, Endianness : Big
Codec ID : 2000
Duration : 45mn 11s
Bit rate mode : Constant
Bit rate : 192 Kbps
Channel(s) : 2 channels
Channel positions : Front: L R
Sampling rate : 48.0 KHz
Frame rate : 31.250 fps (1536 spf)
Compression mode : Lossy
Stream size : 62.1 MiB (10%)
Alignment : Split accross interleaves
Interleave, duration : 40 ms (1.00 video frame)
Interleave, preload duratio : 500 ms
   
Торрент: Зарегистрирован [03 апр 2016, 22:50] Скачать торрент
Скачать торрент
О MediaGet
[ Размер 12.66 КБ / Просмотров 64 ]

Статус:
 
Приватный: Нет (DHT включён)
Размер: 2.34 ГБ (2 515 982 336 байт)
   
Аватара пользователя

Администратор
Администратор
 
Раздал: 2.3 ПБ
Скачал: 1.01 ПБ
Ратио: 2.270
Сообщения: 2997
Зарегистрирован: 07 май 2010, 17:29
Medals: 1
Лучший релиз за месяц (1)
  • Личное сообщение
  • ICQ

Вернуться в Фильмы 2016 (новинки)

Кто сейчас на конференции

Зарегистрированные пользователи: MOBILE666, Nolimit

Ресурс не предоставляет электронные версии произведений, а занимается лишь коллекционированием и каталогизацией ссылок, присылаемых и публикуемых на форуме нашими читателями. Если вы являетесь правообладателем какого-либо представленного материала и не желаете чтобы ссылка на него находилась в нашем каталоге, свяжитесь с нами и мы незамедлительно удалим её. Файлы для обмена на трекере предоставлены пользователями сайта, и администрация не несёт ответственности за их содержание. Просьба не заливать файлы, защищенные авторскими правами, а также файлы нелегального содержания!
cron