Джейн берет ружье / Jane Got a Gun (2015) WEBRip [H.264/720p-LQ]

Киноновинки, новинки кинопроката, горячие новинки

Модератор: Модераторы видео

  • Статистика раздачи
Размер: 2.67 ГБ   |  Зарегистрирован: 17 мар 2016, 04:05   |   .torrent скачан: 16 раз
Сидеров: 242  [ 0 байт/сек ]     Личеров: 33  [ 0 байт/сек ]  
Список файлов : Кто скачал : Раздают : Скачивают : Кто благодарил : История : Не раздающие : Запрашивали сидеров : Внешние трекеры 
  

Джейн берет ружье / Jane Got a Gun (2015) WEBRip [H.264/720p-LQ]

Сообщение Админ » 17 мар 2016, 04:05

Джейн берет ружье / Jane Got a Gun (2015) WEBRip

Производство: США
Жанр: боевик, Вестерн, Драма

Режиссер: Гэвин О’Коннор
Продюсер: Терри Дугас, Алин Кешишьян, Скотт ЛаСтайти
Актеры: Натали Портман, Джоэл Эдгертон, Юэн МакГрегор, Родриго Санторо, Ноа Эммерик, Бойд Холбрук, Алекс Манетт, Тодд Стэшвик, Джеймс Барнетт, Сэм Куинн

Описание:
На Диком Западе действуют свои особые законы. Нарушив их, становишься обречен на смерть. Но ради семьи Джейн готова рискнуть. Когда-то она была в банде Бишопа и его головорезов. Однако, теперь все, что она хочет - это просто спокойно жить. Вот только бандиты преследуют ее и ее мужа. Девушка вынуждена отбросить все принципы и обращается за помощью к бывшему любовнику, ведь им необходим хороший стрелок. Джейн и сама берет ружье и вступает в борьбу за собственное счастье...


Дата мировой премьеры: 31 декабря 2015
Дата премьеры в России: 17 марта 2016, «Экспонента»
Возраст: 16+ (зрителям, достигшим 16 лет)
Рейтинг MPAA: R (Лицам до 17 лет обязательно присутствие взрослого)

Продолжительность: 01:33:14
Качество видео: WEBRip
Перевод: Двуголосый закадровый, любительский (2D)
Вид субтитров: Отсутствуют

Видео: AVC/H.264, 1280x720, ~3913 kbps
Аудио: AC3, 2 ch, 192 kbps
Код:
Код: Выделить всё
Общее
Уникальный идентификатор                 : 223526813734258137574157268960740048799 (0xA829B2C9FA2A2A69B4B0C58582F2FF9F)
Полное имя                               : D:\FILMЬl\MARTELOZ\Jain.Beryot.Ruzhioe.RU.mkv
Формат                                   : Matroska
Версия формата                           : Version 4 / Version 2
Размер файла                             : 2,67 Гбайт
Продолжительность                        : 1 ч. 33 м.
Общий поток                              : 4107 Кбит/сек
Дата кодирования                         : UTC 2016-03-16 18:28:15
Программа кодирования                    : mkvmerge v8.1.0 ('Psychedelic Postcard') 64bit
Библиотека кодирования                   : libebml v1.3.1 + libmatroska v1.4.2
DURATION                                 : 01:33:14.440000000
NUMBER_OF_FRAMES                         : 139861
NUMBER_OF_BYTES                          : 2736418987
_STATISTICS_WRITING_APP                  : mkvmerge v8.1.0 ('Psychedelic Postcard') 64bit
_STATISTICS_WRITING_DATE_UTC             : 2016-03-16 18:28:15
_STATISTICS_TAGS                         : BPS DURATION NUMBER_OF_FRAMES NUMBER_OF_BYTES

Видео
Идентификатор                            : 1
Формат                                   : AVC
Формат/Информация                        : Advanced Video Codec
Профиль формата                          :
Параметр CABAC формата                   : Да
Параметр ReFrames формата                : 3 кадра
Идентификатор кодека                     : V_MPEG4/ISO/AVC
Продолжительность                        : 1 ч. 33 м.
Битрейт                                  : 3913 Кбит/сек
Ширина                                   : 1280 пикселей
Высота                                   : 720 пикселей
Соотношение сторон                       : 16:9
Режим частоты кадров                     : Постоянный
Частота кадров                           : 25,000 кадров/сек
Цветовое пространство                    : YUV
Субдискретизация насыщенности            : 4:2:0
Битовая глубина                          : 8 бит
Тип развёртки                            : Прогрессивная
Бит/(Пиксели*Кадры)                      : 0.170
Размер потока                            : 2,50 Гбайт (93%)
Библиотека кодирования                   : x264 core 148 r2638 7599210
Настройки программы                      : cabac=1 / ref=3 / deblock=1:-2:-1 / analyse=0x3:0x113 / me=hex / subme=7 / psy=1 / psy_rd=1.05:0.15 / mixed_ref=1 / me_range=16 / chroma_me=1 / trellis=1 / 8x8dct=1 / cqm=0 / deadzone=21,11 / fast_pskip=1 / chroma_qp_offset=-5 / threads=6 / lookahead_threads=1 / sliced_threads=0 / nr=0 / decimate=0 / interlaced=0 / bluray_compat=0 / constrained_intra=0 / bframes=3 / b_pyramid=1 / b_adapt=1 / b_bias=0 / direct=1 / weightb=1 / open_gop=0 / weightp=2 / keyint=250 / keyint_min=25 / scenecut=40 / intra_refresh=0 / rc_lookahead=40 / rc=2pass / mbtree=1 / bitrate=3913 / ratetol=1.0 / qcomp=0.60 / qpmin=0 / qpmax=69 / qpstep=4 / cplxblur=20.0 / qblur=0.5 / vbv_maxrate=300000 / vbv_bufsize=300000 / nal_hrd=none / filler=0 / ip_ratio=1.40 / aq=1:1.00
Default                                  : Да
Forced                                   : Нет
Цветовой диапазон                        : Limited
Основные цвета                           : Generic film

Аудио
Идентификатор                            : 2
Формат                                   : AC-3
Формат/Информация                        : Audio Coding 3
Расширение режима                        : CM (complete main)
Параметр Endianness формата              : Big
Идентификатор кодека                     : A_AC3
Продолжительность                        : 1 ч. 33 м.
Вид битрейта                             : Постоянный
Битрейт                                  : 192 Кбит/сек
Каналы                                   : 2 канала
Расположение каналов                     : Front: L R
Частота                                  : 48,0 КГц
Метод сжатия                             : С потерями
Размер потока                            : 128 Мбайт (5%)
Язык                                     : Russian
Default                                  : Да
Forced                                   : Нет

Скриншоты:



Время раздачи: С 09:00 до 23:30 до 5 скачавших (до появления первых 3-5 скачавших)
   
Торрент: Зарегистрирован [17 мар 2016, 04:05] Скачать торрент
Скачать торрент
О MediaGet
[ Размер 14.2 КБ / Просмотров 370 ]

Статус:
 
Приватный: Нет (DHT включён)
Размер: 2.67 ГБ (2 871 986 084 байт)
   
Аватара пользователя

Администратор
Администратор
 
Раздал: 2.29 ПБ
Скачал: 1.01 ПБ
Ратио: 2.266
Сообщения: 2960
Зарегистрирован: 07 май 2010, 17:29
Medals: 1
Лучший релиз за месяц (1)
  • Личное сообщение
  • ICQ

  • Похожие торренты
    Ответы
    Просмотры
    Последнее сообщение

Вернуться в Фильмы 2016 (новинки)

Кто сейчас на конференции

Зарегистрированные пользователи: Starsnerus x 1

Ресурс не предоставляет электронные версии произведений, а занимается лишь коллекционированием и каталогизацией ссылок, присылаемых и публикуемых на форуме нашими читателями. Если вы являетесь правообладателем какого-либо представленного материала и не желаете чтобы ссылка на него находилась в нашем каталоге, свяжитесь с нами и мы незамедлительно удалим её. Файлы для обмена на трекере предоставлены пользователями сайта, и администрация не несёт ответственности за их содержание. Просьба не заливать файлы, защищенные авторскими правами, а также файлы нелегального содержания!
cron