Эссекская вендетта / Essex Vendetta (2016) WEB-DLRip

Киноновинки, новинки кинопроката, горячие новинки

Модератор: Модераторы видео

  • Статистика раздачи
Размер: 1.41 ГБ   |  Зарегистрирован: 17 мар 2016, 04:05   |   .torrent скачан: 7 раз
Сидеров: 51  [ 0 байт/сек ]     Личеров: 12  [ 0 байт/сек ]  
Список файлов : Кто скачал : Раздают : Скачивают : Кто благодарил : История : Не раздающие : Запрашивали сидеров : Внешние трекеры 
  

Эссекская вендетта / Essex Vendetta (2016) WEB-DLRip

Сообщение Админ » 17 мар 2016, 04:05

Эссекская вендетта / Essex Vendetta (2016) WEB-DLRip

Производство: Великобритания / Big Sis Productions, Cobra Films
Жанр: Драма

Режиссер: Терри Ли Кокер
Актеры: Майкл МакКелл, Крис Джонсон, Данниэлла Уэстбрук, Люсинда Родс-Флаэрти, Пол МакКарти, Эдди Веббер, Тони Лонгхерст, Сидни Ливингстоун, Молли Хендерсон, Йен Берфилд

Описание:
Обычный мужчина - семьянин и работник оказавшись в сложной ситуации решается на немыслимый шаг... И он готов пойти до конца рискуя своей жизнью в противостоянии с криминальным миром...


Дата мировой премьеры: 11 апреля 2016

Продолжительность: 01:29:51
Качество видео: WEB-DLRip
Перевод: Двуголосый закадровый, любительский (den904 & DeadSno)
Субтитры: отсутствуют

Видео: Xvid, 720x400, ~1854 Kbps
Аудио: AC3, 2 ch, 192 kbps, CBR | Русский (DVO)
Аудио: AC3, 2 ch, 192 kbps, CBR | Английский
Код:
Код: Выделить всё
Формат                                   : AVI
Формат/Информация                        : Audio Video Interleave
Размер файла                             : 1,41 Гбайт
Продолжительность                        : 1 ч. 29 м.
Общий поток                              : 2252 Кбит/сек
Программа кодирования                    : VirtualDubMod 1.5.10.3 | [url=http://www.virtualdub-fr.org]www.virtualdub-fr.org[/url] || (build 2550/release)
Библиотека кодирования                   : VirtualDubMod build 2550/release

Видео
Идентификатор                            : 0
Формат                                   : MPEG-4 Visual
Профиль формата                          : Advanced Simple@L5
Параметр BVOP формата                    : 2
Параметр QPel формата                    : Нет
Параметр GMC формата                     : Без точки перехода
Параметр матрицы формата                 : Default (H.263)
Идентификатор кодека                     : XVID
Идентификатор кодека/Подсказка           : XviD
Продолжительность                        : 1 ч. 29 м.
Битрейт                                  : 1854 Кбит/сек
Ширина                                   : 720 пикселей
Высота                                   : 400 пикселей
Соотношение сторон                       : 16:9
Частота кадров                           : 23,976 кадра/сек
Цветовое пространство                    : YUV
Субдискретизация насыщенности            : 4:2:0
Битовая глубина                          : 8 бит
Тип развёртки                            : Прогрессивная
Метод сжатия                             : С потерями
Бит/(Пиксели*Кадры)                      : 0.269
Размер потока                            : 1,16 Гбайт (82%)
Библиотека кодирования                   : XviD 73

Аудио #1
Идентификатор                            : 1
Формат                                   : AC-3
Формат/Информация                        : Audio Coding 3
Расширение режима                        : CM (complete main)
Параметр Endianness формата              : Big
Идентификатор кодека                     : 2000
Продолжительность                        : 1 ч. 29 м.
Вид битрейта                             : Постоянный
Битрейт                                  : 192 Кбит/сек
Каналы                                   : 2 канала
Расположение каналов                     : Front: L R
Частота                                  : 48,0 КГц
Метод сжатия                             : С потерями
Размер потока                            : 123 Мбайт (9%)
Выравнивание                             : Разделение по промежуткам
Продолжительность промежутка             : 42  мс. (1,00 видеокадр)
Время предзагрузки промежутка            : 500  мс.

Аудио #2
Идентификатор                            : 2
Формат                                   : AC-3
Формат/Информация                        : Audio Coding 3
Расширение режима                        : CM (complete main)
Параметр Endianness формата              : Big
Идентификатор кодека                     : 2000
Продолжительность                        : 1 ч. 29 м.
Вид битрейта                             : Постоянный
Битрейт                                  : 192 Кбит/сек
Каналы                                   : 2 канала
Расположение каналов                     : Front: L R
Частота                                  : 48,0 КГц
Метод сжатия                             : С потерями
Размер потока                            : 123 Мбайт (9%)
Выравнивание                             : Разделение по промежуткам
Продолжительность промежутка             : 42  мс. (1,00 видеокадр)
Время предзагрузки промежутка            : 500  мс.

Скриншоты:



Время раздачи: По мере возможности..(до первых скачавших) (до появления первых 3-5 скачавших)
   
Торрент: Зарегистрирован [17 мар 2016, 04:05] Скачать торрент
Скачать торрент
О MediaGet
[ Размер 14.95 КБ / Просмотров 330 ]

Статус:
 
Приватный: Нет (DHT включён)
Размер: 1.41 ГБ (1 517 821 952 байт)
   
Аватара пользователя

Администратор
Администратор
 
Раздал: 2.3 ПБ
Скачал: 1.01 ПБ
Ратио: 2.270
Сообщения: 2997
Зарегистрирован: 07 май 2010, 17:29
Medals: 1
Лучший релиз за месяц (1)
  • Личное сообщение
  • ICQ

  • Похожие торренты
    Ответы
    Просмотры
    Последнее сообщение

Вернуться в Фильмы 2016 (новинки)

Кто сейчас на конференции

Зарегистрированные пользователи: Nolimit

Ресурс не предоставляет электронные версии произведений, а занимается лишь коллекционированием и каталогизацией ссылок, присылаемых и публикуемых на форуме нашими читателями. Если вы являетесь правообладателем какого-либо представленного материала и не желаете чтобы ссылка на него находилась в нашем каталоге, свяжитесь с нами и мы незамедлительно удалим её. Файлы для обмена на трекере предоставлены пользователями сайта, и администрация не несёт ответственности за их содержание. Просьба не заливать файлы, защищенные авторскими правами, а также файлы нелегального содержания!
cron