Хлорка / Cloro / Chlorine (Ламберто Санфеличе / Lamberto Sanfelice) [2015, Италия, Драма, DVDRip] + Sub Rus + Original Ita

Киноновинки, новинки кинопроката, горячие новинки

Модератор: Модераторы видео

  • Статистика раздачи
Размер: 1.37 ГБ   |  Зарегистрирован: 17 мар 2016, 03:53   |   .torrent скачан: 2 раз
Сидеров: 0  [ 0 байт/сек ]     Личеров: 0  [ 0 байт/сек ]  
Список файлов : Кто скачал : Раздают : Скачивают : Кто благодарил : История : Не раздающие : Запрашивали сидеров : Внешние трекеры 
  

Хлорка / Cloro / Chlorine (Ламберто Санфеличе / Lamberto Sanfelice) [2015, Италия, Драма, DVDRip] + Sub Rus + Original Ita

Сообщение Админ » 17 мар 2016, 03:53

Хлорка / Cloro / Chlorine

Страна: Италия
Жанр: Драма
Год выпуска: 2015
Продолжительность: 01:30:59

Перевод: Субтитры
Cубтитры: русские: creo140
Оригинальная аудиодорожка: итальянский

Режиссер: Ламберто Санфеличе / Lamberto Sanfelice

В ролях: Сара Серайокко. Пьера Дельи Эспости, Джорджо Коланджели, Иван Франек, Анатоль Сасси, Андреа Вергони

Описание: Дженни семнадцать лет и она мечтает стать чемпионкой по синхронному плаванию. Но её беззаботная подростковая жизнь в Остии (прибрежная провинция Рима) заканчивается после внезапной смерти её матери. Она должна ухаживать за больным отцом и 9-летним братом. Дженни вынуждена переехать в загородный дом дяди, вместе с отцои и с братом, в горном поселении, в Абруццо. Но она не хочет расставаться со своей мечтой - когда-нибудь стать чемпионкой



Сэмпл: http://multi-up.com/1092857

Качество видео: DVDRip
Формат видео: AVI

Видео: Xvid 720x304 25fps 1693kbps
Аудио: Dolby AC3 48000Hz 6ch 448kbps
Формат субтитров: softsub (SRT)
14
00:07:15,480 --> 00:07:17,429
А мы сможем на нём прокатиться?

15
00:07:17,480 --> 00:07:19,929
Мы же не на отдыхе,
ты же понимаешь.

16
00:07:19,960 --> 00:07:22,884
Иди за мной, быстрее.

17
00:07:47,600 --> 00:07:50,448
<i>Месса окончена,
вы можете отдыхать с миром.</i>

18
00:08:10,760 --> 00:08:12,209
Мой дорогой Альфио,

19
00:08:12,760 --> 00:08:15,209
я счастлив приветствовать
тебя в этом сообществе.

20
00:08:15,240 --> 00:08:18,149
Твой брат сказал, что тебя
не было какое-то время,

21
00:08:18,240 --> 00:08:20,849
но всё наладится.

22
00:08:20,880 --> 00:08:22,928
"Да благословит тебя Господь
и да сохранит он тебя...

23
00:08:22,960 --> 00:08:23,964
Да святиться око Господне,

24
00:08:23,990 --> 00:08:25,964
и да прибудет
милость Божия с тобою...

25
00:08:26,000 --> 00:08:02,245
Да обратит Господь
взор свой на тебя,

26
00:08:29,300 --> 00:08:31,245
и дарует тебе мир и покой!"

27
00:08:38,520 --> 00:08:40,450
Чего же вы ждёте?

28
00:08:40,520 --> 00:08:42,450
Давайте, поехали.

29
00:08:42,520 --> 00:08:45,450
Ты поедешь впереди.
Альфи, поехали!

30
00:09:15,600 --> 00:09:17,528
Здесь всё должно
работать нормально,

31
00:09:17,600 --> 00:09:19,528
кроме слива в душе,

32
00:09:19,600 --> 00:09:21,528
но его надо просто подсоединить.

33
00:09:21,560 --> 00:09:24,166
Когда я вернусь,
я всё исправлю.

34
00:09:25,480 --> 00:09:27,847
Не делай такое лицо.

35
00:09:27,880 --> 00:09:29,807
Вам здесь будет хорошо,

36
00:09:29,880 --> 00:09:32,807
просто нужно время,
чтобы всё подготовить.

37
00:09:32,840 --> 00:09:33,650
Мне показалось,

38
00:09:33,680 --> 00:09:35,650
ты сказал,
что мы здесь ненадолго?

39
00:09:39,600 --> 00:09:42,649
Ах, пока я не забыл...

40
00:09:50,800 --> 00:09:53,203
Фармацевт из Сульмона
дал мне это.

41
00:09:53,400 --> 00:09:55,203
Он мой друг.
Давай ему по 20 капель

42
00:09:55,240 --> 00:09:58,130
и ему сразу полегчает.
Format : AVI
Format/Info : Audio Video Interleave
File size : 1.37 GiB
Duration : 1h 30mn
Overall bit rate : 2 151 Kbps
Writing application : VirtualDubMod 1.5.10.3 | http://www.virtualdub-fr.org || (build 2550/release)
Writing library : VirtualDubMod build 2550/release

Video
ID : 0
Format : MPEG-4 Visual
Format profile : Advanced Simple@L5
Format settings, BVOP : 1
Format settings, QPel : No
Format settings, GMC : No warppoints
Format settings, Matrix : Default (MPEG)
Codec ID : XVID
Codec ID/Hint : XviD
Duration : 1h 30mn
Bit rate : 1 693 Kbps
Width : 720 pixels
Height : 304 pixels
Display aspect ratio : 2.35:1
Frame rate : 25.000 fps
Color space : YUV
Chroma subsampling : 4:2:0
Bit depth : 8 bits
Scan type : Progressive
Compression mode : Lossy
Bits/(Pixel*Frame) : 0.309
Stream size : 1.08 GiB (79%)
Writing library : XviD 1.2.1 (UTC 2008-12-04)

Audio
ID : 1
Format : AC-3
Format/Info : Audio Coding 3
Mode extension : CM (complete main)
Format settings, Endianness : Big
Codec ID : 2000
Duration : 1h 30mn
Bit rate mode : Constant
Bit rate : 448 Kbps
Channel(s) : 6 channels
Channel positions : Front: L C R, Side: L R, LFE
Sampling rate : 48.0 KHz
Compression mode : Lossy
Stream size : 292 MiB (21%)
Alignment : Split accross interleaves
Interleave, duration : 40 ms (1.00 video frame)
Interleave, preload duration : 500 ms
   
Торрент: Зарегистрирован [17 мар 2016, 03:53] Скачать торрент
Скачать торрент
О MediaGet
[ Размер 14.29 КБ / Просмотров 332 ]

Статус:
 
Приватный: Нет (DHT включён)
Размер: 1.37 ГБ (1 467 720 396 байт)
   
Аватара пользователя

Администратор
Администратор
 
Раздал: 2.29 ПБ
Скачал: 1.01 ПБ
Ратио: 2.266
Сообщения: 2960
Зарегистрирован: 07 май 2010, 17:29
Medals: 1
Лучший релиз за месяц (1)
  • Личное сообщение
  • ICQ

  • Похожие торренты
    Ответы
    Просмотры
    Последнее сообщение

Вернуться в Фильмы 2016 (новинки)

Кто сейчас на конференции

Зарегистрированные пользователи: Starsnerus x 1

Ресурс не предоставляет электронные версии произведений, а занимается лишь коллекционированием и каталогизацией ссылок, присылаемых и публикуемых на форуме нашими читателями. Если вы являетесь правообладателем какого-либо представленного материала и не желаете чтобы ссылка на него находилась в нашем каталоге, свяжитесь с нами и мы незамедлительно удалим её. Файлы для обмена на трекере предоставлены пользователями сайта, и администрация не несёт ответственности за их содержание. Просьба не заливать файлы, защищенные авторскими правами, а также файлы нелегального содержания!
cron