Убийца / Sicario (2015) BDRip [H.264]

Киноновинки, новинки кинопроката, горячие новинки

Модератор: Модераторы видео

  • Статистика раздачи
Размер: 2.18 ГБ   |  Зарегистрирован: 17 мар 2016, 03:49   |   .torrent скачан: 25 раз
Сидеров: 101  [ 0 байт/сек ]     Личеров: 143  [ 0 байт/сек ]  
Список файлов : Кто скачал : Раздают : Скачивают : Кто благодарил : История : Не раздающие : Запрашивали сидеров : Внешние трекеры 
  

Убийца / Sicario (2015) BDRip [H.264]

Сообщение Админ » 17 мар 2016, 03:49

Убийца / Sicario (2015) BDRip [H.264]

Производство: США
Жанр: боевик, триллер, драма, криминал, детектив

Режиссер: Дени Вильнёв
Актеры: Эмили Блант, Бенисио Дель Торо, Джош Бролин, Виктор Гарбер, Джон Бернтал, Дэниэл Калуя, Джеффри Донован, Рауль Трухильо, Хулио Седильо, Хэнк Роджерсон, Бернардо Галлегос, Максимилиано Эрнандес, Кевин Уиггинс, Эдгар Арреола, Ким Нив, Хесус Неварес-Кастилло, Дилан Кенин, Джон Трехо, Марти Линдси, Алекс Найт

Описание: На американо-мексиканской границе женщина-полицейский сопровождает двух рейнджеров, которые преследуют наркобарона. Она не подозревает, что по ту сторону границы есть тайное место, где не действуют никакие законы и царят насилие и разврат.


Возраст: 16+ (зрителям, достигшим 16 лет)
Рейтинг MPAA: R (Лицам до 17 лет обязательно присутствие взрослого)
Дата мировой премьеры: 19 мая 2015
Дата премьеры РФ: 26 ноября 2015

Продолжительность: 02:01:20
Качество видео: BDRip (H.264)
Перевод: Дублированный (iTunes)
Язык субтитров: русские, английские
Вид субтитров: Вшитые отключаемые

Видео: AVC/H.264, 1152x480 (2.40:1), 23,976 fps, ~1807 kbps, 0.136 bit/pixel
Аудио #1: AC-3, 48.0 KHz, 6 ch, 384 Kbps, CBR | Русский
Аудио #2: AC-3, 48.0 KHz, 6 ch, 384 Kbps, CBR | Английский
Код:
Код: Выделить всё
Общее
Уникальный идентификатор                 : 224329283735964694140899215184398811338 (0xA8C43F9D5E59396BB863B59A572A80CA)
Полное имя                               : E:\Sicario.2015.BDRip.x264.NNM-CLUB.mkv
Формат                                   : Matroska
Версия формата                           : Version 4 / Version 2
Размер файла                             : 2,18 Гбайт
Продолжительность                        : 2 ч. 1 м.
Общий поток                              : 2576 Кбит/сек
Название фильма                          : Убийца / Sicario (2015) :: AFM ::
Дата кодирования                         : UTC 2016-03-16 13:21:54
Программа кодирования                    : mkvmerge v8.3.0 ('Over the Horizon') 32bit
Библиотека кодирования                   : libebml v1.3.1 + libmatroska v1.4.2
DURATION                                 : 02:01:20.352000000
NUMBER_OF_FRAMES                         : 227511
NUMBER_OF_BYTES                          : 349456896
_STATISTICS_WRITING_APP                  : mkvmerge v8.3.0 ('Over the Horizon') 32bit
_STATISTICS_WRITING_DATE_UTC             : 2016-03-16 13:21:54
_STATISTICS_TAGS                         : BPS DURATION NUMBER_OF_FRAMES NUMBER_OF_BYTES

Видео
Идентификатор                            : 1
Формат                                   : AVC
Формат/Информация                        : Advanced Video Codec
Профиль формата                          :
Параметр CABAC формата                   : Да
Параметр ReFrames формата                : 11 кадров
Идентификатор кодека                     : V_MPEG4/ISO/AVC
Продолжительность                        : 2 ч. 1 м.
Битрейт                                  : 1807 Кбит/сек
Ширина                                   : 1152 пикселя
Высота                                   : 480 пикселей
Соотношение сторон                       : 2,40:1
Режим частоты кадров                     : Постоянный
Частота кадров                           : 23,976 кадра/сек
Цветовое пространство                    : YUV
Субдискретизация насыщенности            : 4:2:0
Битовая глубина                          : 8 бит
Тип развёртки                            : Прогрессивная
Бит/(Пиксели*Кадры)                      : 0.136
Размер потока                            : 1,49 Гбайт (68%)
Библиотека кодирования                   : x264 core 148 r2665+53 6629127 t_mod_Custom [8-bit@all X86_64]
Настройки программы                      : cabac=1 / ref=11 / deblock=1:-3:-2 / analyse=0x3:0x113 / me=umh / subme=10 / psy=1 / fade_compensate=0.00 / psy_rd=1.00:0.05 / mixed_ref=1 / me_range=32 / chroma_me=1 / trellis=2 / 8x8dct=1 / cqm=0 / deadzone=21,11 / fast_pskip=0 / chroma_qp_offset=-3 / threads=6 / lookahead_threads=1 / sliced_threads=0 / nr=0 / decimate=0 / interlaced=0 / bluray_compat=0 / constrained_intra=0 / fgo=0 / bframes=14 / b_pyramid=2 / b_adapt=2 / b_bias=0 / direct=3 / weightb=1 / open_gop=0 / weightp=2 / keyint=250 / keyint_min=23 / scenecut=40 / intra_refresh=0 / rc_lookahead=40 / rc=2pass / mbtree=0 / bitrate=1807 / ratetol=1.0 / qcomp=0.65 / qpmin=0:0:0 / qpmax=69:69:69 / qpstep=4 / cplxblur=20.0 / qblur=0.5 / vbv_maxrate=50000 / vbv_bufsize=62500 / nal_hrd=none / filler=0 / ip_ratio=1.33 / pb_ratio=1.30 / aq=3:0.90 / aq-sensitivity=10.00 / aq-factor=1.00:1.00:1.00 / aq2=0 / aq3=0
Язык                                     : English
Default                                  : Да
Forced                                   : Нет
DURATION                                 : 02:01:20.273000000
NUMBER_OF_FRAMES                         : 174552
NUMBER_OF_BYTES                          : 1643036882
_STATISTICS_WRITING_APP                  : mkvmerge v8.3.0 ('Over the Horizon') 32bit
_STATISTICS_WRITING_DATE_UTC             : 2016-03-16 13:21:54
_STATISTICS_TAGS                         : BPS DURATION NUMBER_OF_FRAMES NUMBER_OF_BYTES

Аудио #1
Идентификатор                            : 2
Формат                                   : AC-3
Формат/Информация                        : Audio Coding 3
Расширение режима                        : CM (complete main)
Параметр Endianness формата              : Big
Идентификатор кодека                     : A_AC3
Продолжительность                        : 2 ч. 1 м.
Вид битрейта                             : Постоянный
Битрейт                                  : 384 Кбит/сек
Каналы                                   : 6 каналов
Расположение каналов                     : Front: L C R, Side: L R, LFE
Частота                                  : 48,0 КГц
Битовая глубина                          : 16 бит
Метод сжатия                             : С потерями
Размер потока                            : 333 Мбайт (15%)
Заголовок                                : Dub, AC3 5.1 ~384 kbps
Язык                                     : Russian
Default                                  : Да
Forced                                   : Нет

Аудио #2
Идентификатор                            : 3
Формат                                   : AC-3
Формат/Информация                        : Audio Coding 3
Расширение режима                        : CM (complete main)
Параметр Endianness формата              : Big
Идентификатор кодека                     : A_AC3
Продолжительность                        : 2 ч. 1 м.
Вид битрейта                             : Постоянный
Битрейт                                  : 384 Кбит/сек
Каналы                                   : 6 каналов
Расположение каналов                     : Front: L C R, Side: L R, LFE
Частота                                  : 48,0 КГц
Битовая глубина                          : 16 бит
Метод сжатия                             : С потерями
Размер потока                            : 333 Мбайт (15%)
Заголовок                                : Original, AC3 5.1 ~384 kbps
Язык                                     : English
Default                                  : Нет
Forced                                   : Нет

Текст #1
Идентификатор                            : 4
Формат                                   : UTF-8
Идентификатор кодека                     : S_TEXT/UTF8
Идентификатор кодека/Информация          : UTF-8 Plain Text
Заголовок                                : forced
Язык                                     : Russian
Default                                  : Да
Forced                                   : Нет

Текст #2
Идентификатор                            : 5
Формат                                   : UTF-8
Идентификатор кодека                     : S_TEXT/UTF8
Идентификатор кодека/Информация          : UTF-8 Plain Text
Язык                                     : Russian
Default                                  : Нет
Forced                                   : Нет

Текст #3
Идентификатор                            : 6
Формат                                   : UTF-8
Идентификатор кодека                     : S_TEXT/UTF8
Идентификатор кодека/Информация          : UTF-8 Plain Text
Язык                                     : English
Default                                  : Нет
Forced                                   : Нет

Меню
00:00:00.000                             : en:Chapter 1
00:07:14.351                             : en:Chapter 2
00:12:55.108                             : en:Chapter 3
00:20:04.370                             : en:Chapter 4
00:25:24.815                             : en:Chapter 5
00:32:11.596                             : en:Chapter 6
00:39:24.821                             : en:Chapter 7
00:46:15.314                             : en:Chapter 8
00:53:24.576                             : en:Chapter 9
01:01:40.322                             : en:Chapter 10
01:10:49.120                             : en:Chapter 11
01:18:02.887                             : en:Chapter 12
01:30:59.371                             : en:Chapter 13
01:36:57.770                             : en:Chapter 14
01:47:42.039                             : en:Chapter 15
01:54:12.804                             : en:Chapter 16
Скриншоты:

Время раздачи: 24/7 до 10 скачавших
   
Торрент: Зарегистрирован [17 мар 2016, 03:49] Скачать торрент
Скачать торрент
О MediaGet
[ Размер 11.59 КБ / Просмотров 463 ]

Статус:
 
Приватный: Нет (DHT включён)
Размер: 2.18 ГБ (2 343 900 580 байт)
   
Аватара пользователя

Администратор
Администратор
 
Раздал: 2.29 ПБ
Скачал: 1.01 ПБ
Ратио: 2.266
Сообщения: 2960
Зарегистрирован: 07 май 2010, 17:29
Medals: 1
Лучший релиз за месяц (1)
  • Личное сообщение
  • ICQ

  • Похожие торренты
    Ответы
    Просмотры
    Последнее сообщение

Вернуться в Фильмы 2016 (новинки)

Кто сейчас на конференции

Зарегистрированные пользователи: Starsnerus x 1

Ресурс не предоставляет электронные версии произведений, а занимается лишь коллекционированием и каталогизацией ссылок, присылаемых и публикуемых на форуме нашими читателями. Если вы являетесь правообладателем какого-либо представленного материала и не желаете чтобы ссылка на него находилась в нашем каталоге, свяжитесь с нами и мы незамедлительно удалим её. Файлы для обмена на трекере предоставлены пользователями сайта, и администрация не несёт ответственности за их содержание. Просьба не заливать файлы, защищенные авторскими правами, а также файлы нелегального содержания!
cron