Эми / Amy (2015) HDRip

Киноновинки, новинки кинопроката, горячие новинки

Модератор: Модераторы видео

  • Статистика раздачи
Размер: 2.06 ГБ   |  Зарегистрирован: 16 мар 2016, 02:58   |   .torrent скачан: 5 раз
Сидеров: 65  [ 0 байт/сек ]     Личеров: 0  [ 0 байт/сек ]  
Список файлов : Кто скачал : Раздают : Скачивают : Кто благодарил : История : Не раздающие : Запрашивали сидеров : Внешние трекеры 
  

Эми / Amy (2015) HDRip

Сообщение Админ » 16 мар 2016, 02:59

Эми / Amy (2015) HDRip

Производство: Великобритания, США
Жанр: Документальный, Биография, Музыка

Режиссер: Азиф Кападиа
Актеры: Эми Уайнхаус, Ясин Бей, Марк Ронсон, Тони Беннетт, Пит Доэрти, Митч Уайнхаус, Блейк Филдер-Сивил, Салаам Реми, Джульетт Эшби, Монте Липман

Описание:
Документальный фильм проливает свет на мир, в котором жила Эми, через автобиографические тексты ее песен, видео из личных архивов семьи и друзей, а также интервью близких людей и коллег. На протяжении долгого времени велись поиски и сбор уникального материала для картины. В фильме прозвучат неизвестные ранее треки и появятся кадры с пленок, на которых юная Эми в окружении друзей исполняет свои первые песни. Режиссер собрал около сотни аудиоинтервью в ближнем кругу певицы.



Продолжительность: 02:02:51
Качество видео: HDRip
Перевод: Любительский (многоголосый, закадровый) (Paradox & Omskbird records)
Озвучка / Автор перевода: Ольга Федорова, Павел Ярощик и Анастасия Флигина / Екатерина Кузнецова
Видео: Xvid, 720x384, ~1937 kbps
Аудио: AC3, 6 ch, 448 kbps, CBR
Код:
Код: Выделить всё
Формат                                   : AVI
Формат/Информация                        : Audio Video Interleave
Профиль формата                          : OpenDML
Размер файла                             : 2,06 Гбайт
Продолжительность                        : 2 ч. 2 м.
Общий поток                              : 2397 Кбит/сек
Программа кодирования                    : VirtualDubMod 1.5.10.3 | [url=http://www.virtualdub-fr.org]www.virtualdub-fr.org[/url] || (build 2550/release)
Библиотека кодирования                   : VirtualDubMod build 2550/release

Видео
Идентификатор                            : 0
Формат                                   : MPEG-4 Visual
Профиль формата                          : Advanced Simple@L5
Параметр BVOP формата                    : 2
Параметр QPel формата                    : Нет
Параметр GMC формата                     : Без точки перехода
Параметр матрицы формата                 : Default (MPEG)
Идентификатор кодека                     : XVID
Идентификатор кодека/Подсказка           : XviD
Продолжительность                        : 2 ч. 2 м.
Битрейт                                  : 1937 Кбит/сек
Ширина                                   : 720 пикселей
Высота                                   : 384 пикселя
Соотношение сторон                       : 1,85:1
Частота кадров                           : 25,000 кадров/сек
Цветовое пространство                    : YUV
Субдискретизация насыщенности            : 4:2:0
Битовая глубина                          : 8 бит
Тип развёртки                            : Прогрессивная
Метод сжатия                             : С потерями
Бит/(Пиксели*Кадры)                      : 0.280
Размер потока                            : 1,66 Гбайт (81%)
Библиотека кодирования                   : XviD 1.2.1 (UTC 2008-12-04)

Аудио
Идентификатор                            : 1
Формат                                   : AC-3
Формат/Информация                        : Audio Coding 3
Расширение режима                        : CM (complete main)
Параметр Endianness формата              : Big
Идентификатор кодека                     : 2000
Продолжительность                        : 2 ч. 2 м.
Вид битрейта                             : Постоянный
Битрейт                                  : 448 Кбит/сек
Каналы                                   : 6 каналов
Расположение каналов                     : Front: L C R, Side: L R, LFE
Частота                                  : 48,0 КГц
Метод сжатия                             : С потерями
Размер потока                            : 394 Мбайт (19%)
Выравнивание                             : Разделение по промежуткам
Продолжительность промежутка             : 40  мс. (1,00 видеокадр)
Время предзагрузки промежутка            : 500  мс.
2

Скриншоты:


Время раздачи: 22:05-05:20 (MSK) (до появления первых 3-5 скачавших)
   
Торрент: Зарегистрирован [16 мар 2016, 02:58] Скачать торрент
Скачать торрент
О MediaGet
[ Размер 11.02 КБ / Просмотров 398 ]

Статус:
 
Приватный: Нет (DHT включён)
Размер: 2.06 ГБ (2 208 978 944 байт)
   
Аватара пользователя

Администратор
Администратор
 
Раздал: 2.29 ПБ
Скачал: 1.01 ПБ
Ратио: 2.266
Сообщения: 2967
Зарегистрирован: 07 май 2010, 17:29
Medals: 1
Лучший релиз за месяц (1)
  • Личное сообщение
  • ICQ

  • Похожие торренты
    Ответы
    Просмотры
    Последнее сообщение

Вернуться в Фильмы 2016 (новинки)

Кто сейчас на конференции

Зарегистрированные пользователи: Dimkinzx, EAst, kabarda07, kilinbel, Nolimit, Starsnerus x 1, viRUSik

Ресурс не предоставляет электронные версии произведений, а занимается лишь коллекционированием и каталогизацией ссылок, присылаемых и публикуемых на форуме нашими читателями. Если вы являетесь правообладателем какого-либо представленного материала и не желаете чтобы ссылка на него находилась в нашем каталоге, свяжитесь с нами и мы незамедлительно удалим её. Файлы для обмена на трекере предоставлены пользователями сайта, и администрация не несёт ответственности за их содержание. Просьба не заливать файлы, защищенные авторскими правами, а также файлы нелегального содержания!
cron