Каприз / Caprice (Эмманюэль Муре / Emmanuel Mouret) [2015, Франция, мелодрама, комедия, HDTV 1080i] MVO

Киноновинки, новинки кинопроката, горячие новинки

Модератор: Модераторы видео

  • Статистика раздачи
Размер: 5.35 ГБ   |  Зарегистрирован: 15 мар 2016, 00:52   |   .torrent скачан: 3 раз
Сидеров: 3  [ 0 байт/сек ]     Личеров: 0  [ 0 байт/сек ]  
Список файлов : Кто скачал : Раздают : Скачивают : Кто благодарил : История : Не раздающие : Запрашивали сидеров : Внешние трекеры 
  

Каприз / Caprice (Эмманюэль Муре / Emmanuel Mouret) [2015, Франция, мелодрама, комедия, HDTV 1080i] MVO

Сообщение Админ » 15 мар 2016, 00:52

Каприз / Caprice
Страна: Франция
Жанр: мелодрама, Комедия
Год выпуска: 2015
Продолжительность: 01:33:44

Перевод: Профессиональный (многоголосый закадровый)
Cубтитры: нет
Оригинальная аудиодорожка: нет

Режиссер: Эмманюэль Муре / Emmanuel Mouret

В ролях: Виржини Эфира, Анаис Демустье, Лоран Стокер, Эмманюэль Муре, Томас Бланчард, Матильда Варнье, Оливье Крувелье, Ботум Дюпуа, Néo Rouleau, Léo Lorléac'h

Описание: Клеман работает учителем, он счастлив до умопомрачения: Алисья, знаменитая актриса, которую он боготворит, становится его спутницей. Но все усложняется в момент, когда он знакомится с Каприс, женщиной, которая с трудом сдерживает свои эмоции и имеет склонность к крайностям. Она в него влюблена. Между тем, его лучший друг Тома сближается с Алисьей….

Сэмпл: https://yadi.sk/i/U1Y7cylJpxn5Q





Тип релиза: HDTV 1080i
Контейнер: TS

Видео: AVC/H.264, PAL, 1920x1080 (16:9), 7573 Кбит/сек, 25.000 fps
Аудио: русский, Mp-2, 2 ch, 48,0 КГц, 192 Кбит/сек.
Общее
Идентификатор : 1 (0x1)
Полное имя : D:\Каприз.ts
Формат : MPEG-TS
Размер файла : 5,35 Гбайт
Продолжительность : 1 ч. 33 м.
Режим общего битрейта : Переменный
Общий поток : 8170 Кбит/сек
Максимальный общий битрейт : 35,5 Мбит/сек

Видео
Идентификатор : 4113 (0x1011)
Идентификатор меню : 1 (0x1)
Формат : AVC
Формат/Информация : Advanced Video Codec
Профиль формата : Main@L4.0
Параметр CABAC формата : Да
Параметр ReFrames формата : 3 кадра
Идентификатор кодека : 27
Продолжительность : 1 ч. 33 м.
Вид битрейта : Переменный
Битрейт : 7573 Кбит/сек
Максимальный битрейт : 40,0 Мбит/сек
Ширина : 1920 пикселей
Высота : 1080 пикселей
Соотношение сторон : 16:9
Частота кадров : 25,000 кадров/сек
Стандарт вещания : Component
Цветовое пространство : YUV
Субдискретизация насыщенности : 4:2:0
Битовая глубина : 8 бит
Тип развёртки : Чересстрочная
Порядок развёртки : Верхнее поле первое
Бит/(Пиксели*Кадры) : 0.146
Размер потока : 4,96 Гбайт (93%)
colour_range : Limited

Аудио
Идентификатор : 4352 (0x1100)
Идентификатор меню : 1 (0x1)
Формат : MPEG Audio
Версия формата : Version 1
Профиль формата : Layer 2
Идентификатор кодека : 4
Продолжительность : 1 ч. 33 м.
Вид битрейта : Постоянный
Битрейт : 192 Кбит/сек
Каналы : 2 канала
Частота : 48,0 КГц
Метод сжатия : С потерями
Размер потока : 129 Мбайт (2%)
Язык : Russian
   
Торрент: Зарегистрирован [15 мар 2016, 00:52] За каждые 2 ГБ. аплоада (сидирования) этого торрента начисляется бонус: 0.001 Скачать торрент
Скачать торрент
О MediaGet
[ Размер 27.2 КБ / Просмотров 191 ]

Статус:
 
Приватный: Нет (DHT включён)
Размер: 5.35 ГБ (5 744 162 528 байт)
   
Аватара пользователя

Администратор
Администратор
 
Раздал: 2.29 ПБ
Скачал: 1.01 ПБ
Ратио: 2.266
Сообщения: 2960
Зарегистрирован: 07 май 2010, 17:29
Medals: 1
Лучший релиз за месяц (1)
  • Личное сообщение
  • ICQ

Вернуться в Фильмы 2016 (новинки)

Кто сейчас на конференции

Зарегистрированные пользователи: Starsnerus x 1

Ресурс не предоставляет электронные версии произведений, а занимается лишь коллекционированием и каталогизацией ссылок, присылаемых и публикуемых на форуме нашими читателями. Если вы являетесь правообладателем какого-либо представленного материала и не желаете чтобы ссылка на него находилась в нашем каталоге, свяжитесь с нами и мы незамедлительно удалим её. Файлы для обмена на трекере предоставлены пользователями сайта, и администрация не несёт ответственности за их содержание. Просьба не заливать файлы, защищенные авторскими правами, а также файлы нелегального содержания!
cron