Ип Ман 3D / Yip Man 3 (2015) BDRemux [H.264/1080p]

Киноновинки, новинки кинопроката, горячие новинки

Модератор: Модераторы видео

  • Статистика раздачи
Размер: 13.42 ГБ   |  Зарегистрирован: 14 мар 2016, 19:45   |   .torrent скачан: 5 раз
Сидеров: 22  [ 0 байт/сек ]     Личеров: 0  [ 0 байт/сек ]  
Список файлов : Кто скачал : Раздают : Скачивают : Кто благодарил : История : Не раздающие : Запрашивали сидеров : Внешние трекеры 
  

Ип Ман 3D / Yip Man 3 (2015) BDRemux [H.264/1080p]

Сообщение Админ » 14 мар 2016, 19:45

Ип Ман 3D / Yip Man 3 (2015) BDRemux [H.264/1080p]

Производство: Гонконг, Dreams Salon Entertainment Culture, Pegasus Motion Pictures, Starbright Communications
Жанр: боевик, Драма, Биография, История
Режиссер: Уилсон Ип

Актеры: Донни Ен, Линн Хун, Цзинь Чжан, Майк Тайсон, Патрик Там, Карина ЭнДжи, Кент Чэн, Ка-Ян Леунг, Квок-Куен Чан ...

Описание:
Когда жестокая банда гангстеров под предводительством коррумпированного застройщика пытается захватить власть в городе, мастер вынужден встать на его защиту.
Полубиографический фильм о жизни Ип Мана - первого человека, начавшего открыто преподавать кунг-фу (стиль Вин-Чунь).



Дата мировой премьеры: 16 декабря 2015, Гонконг
Бюджет: $36 000 000

Релиз от: NNM-CLUB
Продолжительность: 01:44:41
Качество видео: BDRemux
Перевод: Любительский многоголосый (RecentFilms)
Язык субтитров: Английский
Вид субтитров: Вшитые (отключаемые)
Реклама: Отсутствует

Видео: AVC, 1920x1080 (16:9), 17299 kbps, 24 fps
Аудио #1: AC-3, 48.0 KHz, 2 ch, 384 Kbps, CBR (Russian)
Аудио #2: AC-3, 48.0 KHz, 6 ch, 640 Kbps, CBR (Chinese)
Код:
Код: Выделить всё
General
Unique ID                   : 242671755468809417720367597231471585386 (0xB690E14B0D185157BF7390CD1727E86A)
Complete name               : F:\Video\Ip.Man.3.2015.BluRay.1080p.BDRemux.mkv
Format                      : Matroska
Format version              : Version 4 / Version 2
File size                   : 13.4 GiB
Duration                    : 1h 44mn
Overall bit rate mode       : Variable
Overall bit rate            : 18.4 Mbps
Encoded date                : UTC 2016-03-14 14:18:39
Writing application         : mkvmerge v8.9.0 ('Father Daughter') 64bit
Writing library             : libebml v1.3.3 + libmatroska v1.4.4

Video
ID                          : 1
Format                      : AVC
Format/Info                 : Advanced Video Codec
Format profile              :
Format settings, CABAC      : Yes
Format settings, ReFrames   : 4 frames
Codec ID                    : V_MPEG4/ISO/AVC
Duration                    : 1h 44mn
Bit rate mode               : Variable
Bit rate                    : 17.3 Mbps
Maximum bit rate            : 20.0 Mbps
Width                       : 1 920 pixels
Height                      : 1 080 pixels
Display aspect ratio        : 16:9
Frame rate mode             : Constant
Frame rate                  : 24.000 fps
Standard                    : NTSC
Color space                 : YUV
Chroma subsampling          : 4:2:0
Bit depth                   : 8 bits
Scan type                   : Progressive
Bits/(Pixel*Frame)          : 0.348
Stream size                 : 12.7 GiB (94%)
Language                    : Chinese
Default                     : Yes
Forced                      : No
Color range                 : Limited
Color primaries             : BT.709
Transfer characteristics    : BT.709
Matrix coefficients         : BT.709

Audio #1
ID                          : 2
Format                      : AC-3
Format/Info                 : Audio Coding 3
Mode extension              : CM (complete main)
Format settings, Endianness : Big
Codec ID                    : A_AC3
Duration                    : 1h 44mn
Bit rate mode               : Constant
Bit rate                    : 384 Kbps
Channel(s)                  : 2 channels
Channel positions           : Front: L R
Sampling rate               : 48.0 KHz
Frame rate                  : 31.250 fps (1536 spf)
Compression mode            : Lossy
Stream size                 : 288 MiB (2%)
Title                       : RecentFilms
Language                    : Russian
Default                     : Yes
Forced                      : No

Audio #2
ID                          : 3
Format                      : AC-3
Format/Info                 : Audio Coding 3
Mode extension              : CM (complete main)
Format settings, Endianness : Big
Codec ID                    : A_AC3
Duration                    : 1h 44mn
Bit rate mode               : Constant
Bit rate                    : 640 Kbps
Channel(s)                  : 6 channels
Channel positions           : Front: L C R, Side: L R, LFE
Sampling rate               : 48.0 KHz
Frame rate                  : 31.250 fps (1536 spf)
Compression mode            : Lossy
Stream size                 : 479 MiB (3%)
Title                       : Cantonese
Language                    : Chinese
Default                     : No
Forced                      : No

Text
ID                          : 4
Format                      : PGS
Muxing mode                 : zlib
Codec ID                    : S_HDMV/PGS
Codec ID/Info               : Picture based subtitle format used on BDs/HD-DVDs
Duration                    : 1h 39mn
Bit rate                    : 9 984 bps
Count of elements           : 2376
Stream size                 : 7.13 MiB (0%)
Language                    : English
Default                     : No
Forced                      : No

Скриншоты:


Время раздачи: 24/7 (круглосуточно)
   
Торрент: Зарегистрирован [14 мар 2016, 19:45] За каждые 2 ГБ. аплоада (сидирования) этого торрента начисляется бонус: 0.001 Скачать торрент
Скачать торрент
О MediaGet
[ Размер 67.82 КБ / Просмотров 195 ]

Статус:
 
Приватный: Нет (DHT включён)
Размер: 13.42 ГБ (14 414 729 979 байт)
   
Аватара пользователя

Администратор
Администратор
 
Раздал: 2.29 ПБ
Скачал: 1.01 ПБ
Ратио: 2.266
Сообщения: 2960
Зарегистрирован: 07 май 2010, 17:29
Medals: 1
Лучший релиз за месяц (1)
  • Личное сообщение
  • ICQ

Вернуться в Фильмы 2016 (новинки)

Кто сейчас на конференции

Зарегистрированные пользователи: Starsnerus x 1

Ресурс не предоставляет электронные версии произведений, а занимается лишь коллекционированием и каталогизацией ссылок, присылаемых и публикуемых на форуме нашими читателями. Если вы являетесь правообладателем какого-либо представленного материала и не желаете чтобы ссылка на него находилась в нашем каталоге, свяжитесь с нами и мы незамедлительно удалим её. Файлы для обмена на трекере предоставлены пользователями сайта, и администрация не несёт ответственности за их содержание. Просьба не заливать файлы, защищенные авторскими правами, а также файлы нелегального содержания!
cron