Рыцарь кубков / Knight of Cups (2015) BDRip [H.264]

Киноновинки, новинки кинопроката, горячие новинки

Модератор: Модераторы видео

  • Статистика раздачи
Размер: 2.17 ГБ   |  Зарегистрирован: 14 мар 2016, 03:03   |   .torrent скачан: 2 раз
Сидеров: 93  [ 0 байт/сек ]     Личеров: 5  [ 0 байт/сек ]  
Список файлов : Кто скачал : Раздают : Скачивают : Кто благодарил : История : Не раздающие : Запрашивали сидеров : Внешние трекеры 
  

Рыцарь кубков / Knight of Cups (2015) BDRip [H.264]

Сообщение Админ » 14 мар 2016, 03:03

Рыцарь кубков / Knight of Cups (2015)

Производство: США, Dogwood Films, Waypoint Entertainment
Жанр: Драма

Режиссер: Терренс Малик
Актеры: Кристиан Бэйл, Кейт Бланшетт, Натали Портман, Брайан Деннехи, Антонио Бандерас, Майкл Уинкотт, Фрида Пинто, Уэс Бентли, Изабель Лукас, Тереза Палмер

Описание:
Сценарист из Лос-Анджелеса, пытается разобраться в странных событиях, происходящих в его жизни. Он успешен в своей карьере, но чувствует себя лишним в этой жизни. Из-за смерти брата у него возникают проблемы в отношениях с отцом, поэтому большую часть времени он проводит, кочуя из одной богемной вечеринки на другую, при этом каждый раз меняя женщин. Любовные романы отвлекают его от ежедневной боли, из-за утраты близкого человека. И каждая новая встреча, возникающая на его пути, приближает его к поиску своего места в мире.



Продолжительность: 01:58:23
Качество видео: BDRip [H.264]
Перевод: Любительский двухголосый (Parovoz Production)
Оригинальная дорожка: Английский
Вид субтитров: Вшитые, отключаемые
Язык субтитров: русские, английские, английские (SDH)

Видео: AVC, 1052x446 (2.35:1), 2055 kbps, 23,976 fps, 0,183 bpp
Аудио №1: AC3, 2.0 ch, 48 kHz, 192 kbps, 16 bit (DVO Parovoz Production)
Аудио №2: AC3, 5.1 ch, 48 kHz, 384 kbps, 16 bit (Оригинал)
Формат субтитров: softsub (SRT)
Навигация по главам: есть


Семпл: Скачать
Код:
Код: Выделить всё
-[Information] [12.03.2016 8:18:35] x264 [info]: frame I:956   Avg QP:16.83  size: 67650
-[Information] [12.03.2016 8:18:35] x264 [info]: frame P:41447 Avg QP:20.36  size: 21560
-[Information] [12.03.2016 8:18:35] x264 [info]: frame B:127915 Avg QP:21.82  size:  6737


Код:
Код: Выделить всё
General
Unique ID : 190585063306922703436216605894532056064 (0x8F615918FD8DE14DA353E3443186C400)
Complete name : e:\knight.of.cups.2015.terrence.malick.bdrip-avc.mkv
Format : Matroska
Format version : Version 4 / Version 2
File size : 2.17 GiB
Duration : 1h 58mn
Overall bit rate : 2 628 Kbps
Movie name : Рыцарь кубков / Knight of Cups [2015]
Encoded by : know yourself
Encoded date : UTC 2016-03-12 05:20:46
Writing application : mkvmerge v8.9.0 ('Father Daughter') 32bit
Writing library : libebml v1.3.3 + libmatroska v1.4.4
Attachements : cover.jpg
DIRECTOR : Terrence Malick
DATE_RELEASED : 2015
DURATION : 01:50:35.970000000
NUMBER_OF_FRAMES : 833
NUMBER_OF_BYTES : 28241
_STATISTICS_WRITING_APP : mkvmerge v8.9.0 ('Father Daughter') 32bit
_STATISTICS_WRITING_DATE_UTC : 2016-03-12 05:20:46
_STATISTICS_TAGS : BPS DURATION NUMBER_OF_FRAMES NUMBER_OF_BYTES
Video
ID : 1
Format : AVC
Format/Info : Advanced Video Codec
Format profile :
Format settings, CABAC : Yes
Format settings, ReFrames : 12 frames
Codec ID : V_MPEG4/ISO/AVC
Duration : 1h 58mn
Bit rate : 2 055 Kbps
Width : 1 052 pixels
Height : 446 pixels
Display aspect ratio : 2.35:1
Frame rate mode : Constant
Frame rate : 23.976 fps
Color space : YUV
Chroma subsampling : 4:2:0
Bit depth : 8 bits
Scan type : Progressive
Bits/(Pixel*Frame) : 0.183
Stream size : 1.65 GiB (76%)
Title : Рыцарь кубков / Knight of Cups
Writing library : x264 core 148 r2665kMod a01e339
Encoding settings : cabac=1 / ref=12 / deblock=1:-1:-1 / analyse=0x3:0x113 / me=umh / subme=10 / psy=1 / fade_compensate=0.00 / psy_rd=1.00:0.15 / mixed_ref=1 / me_range=32 / chroma_me=1 / trellis=2 / 8x8dct=1 / cqm=0 / deadzone=21,11 / fast_pskip=0 / chroma_qp_offset=-3 / threads=6 / lookahead_threads=1 / sliced_threads=0 / nr=0 / decimate=1 / interlaced=0 / bluray_compat=0 / constrained_intra=0 / fgo=0 / bframes=13 / b_pyramid=2 / b_adapt=2 / b_bias=0 / direct=3 / weightb=1 / open_gop=0 / weightp=2 / keyint=240 / keyint_min=23 / scenecut=40 / intra_refresh=0 / rc_lookahead=60 / rc=2pass / mbtree=0 / bitrate=2055 / ratetol=1.0 / qcomp=0.60 / qpmin=0 / qpmax=69 / qpstep=4 / cplxblur=20.0 / qblur=0.5 / vbv_maxrate=25000 / vbv_bufsize=25000 / nal_hrd=none / filler=0 / ip_ratio=1.40 / pb_ratio=1.30 / aq=1:1.00
Language : English
Default : Yes
Forced : No
DURATION : 01:58:23.680000000
NUMBER_OF_FRAMES : 170318
NUMBER_OF_BYTES : 1819985645
_STATISTICS_WRITING_APP : mkvmerge v8.9.0 ('Father Daughter') 32bit
_STATISTICS_WRITING_DATE_UTC : 2016-03-12 05:20:46
_STATISTICS_TAGS : BPS DURATION NUMBER_OF_FRAMES NUMBER_OF_BYTES
Audio #1
ID : 2
Format : AC-3
Format/Info : Audio Coding 3
Mode extension : CM (complete main)
Format settings, Endianness : Big
Codec ID : A_AC3
Duration : 1h 58mn
Bit rate mode : Constant
Bit rate : 192 Kbps
Channel(s) : 2 channels
Channel positions : Front: L R
Sampling rate : 48.0 KHz
Bit depth : 16 bits
Compression mode : Lossy
Stream size : 163 MiB (7%)
Title : DVO (Parovoz Production)
Language : Russian
Default : Yes
Forced : No
Audio #2
ID : 3
Format : AC-3
Format/Info : Audio Coding 3
Mode extension : CM (complete main)
Format settings, Endianness : Big
Codec ID : A_AC3
Duration : 1h 58mn
Bit rate mode : Constant
Bit rate : 384 Kbps
Channel(s) : 6 channels
Channel positions : Front: L C R, Side: L R, LFE
Sampling rate : 48.0 KHz
Bit depth : 16 bits
Compression mode : Lossy
Stream size : 325 MiB (15%)
Title : Оригинал
Language : English
Default : No
Forced : No
Text #1
ID : 4
Format : UTF-8
Codec ID : S_TEXT/UTF8
Codec ID/Info : UTF-8 Plain Text
Language : Russian
Default : No
Forced : No
Text #2
ID : 5
Format : UTF-8
Codec ID : S_TEXT/UTF8
Codec ID/Info : UTF-8 Plain Text
Title : eng
Language : English
Default : No
Forced : No
Text #3
ID : 6
Format : UTF-8
Codec ID : S_TEXT/UTF8
Codec ID/Info : UTF-8 Plain Text
Title : eng sdh
Language : English
Default : No
Forced : No
Menu
00:00:00.000 : en:
00:09:33.406 : en:
00:21:16.400 : en:
00:30:05.678 : en:
00:39:28.324 : en:
00:49:00.145 : en:
00:59:26.646 : en:
01:10:42.613 : en:
01:21:11.408 : en:
01:30:31.592 : en:
01:40:46.623 : en:
01:51:10.413 : en:
01:58:10.166 : en:


Скриншоты:

Время раздачи: 24/7 (до появления первых 3-5 скачавших)
   
Торрент: Зарегистрирован [14 мар 2016, 03:03] Скачать торрент
Скачать торрент
О MediaGet
[ Размер 11.7 КБ / Просмотров 198 ]

Статус:
 
Приватный: Нет (DHT включён)
Размер: 2.17 ГБ (2 333 431 668 байт)
   
Аватара пользователя

Администратор
Администратор
 
Раздал: 2.3 ПБ
Скачал: 1.01 ПБ
Ратио: 2.268
Сообщения: 2977
Зарегистрирован: 07 май 2010, 17:29
Medals: 1
Лучший релиз за месяц (1)
  • Личное сообщение
  • ICQ

  • Похожие торренты
    Ответы
    Просмотры
    Последнее сообщение

Вернуться в Фильмы 2016 (новинки)

Кто сейчас на конференции

Зарегистрированные пользователи: sergey_tr, ЗУРБАГАН

Ресурс не предоставляет электронные версии произведений, а занимается лишь коллекционированием и каталогизацией ссылок, присылаемых и публикуемых на форуме нашими читателями. Если вы являетесь правообладателем какого-либо представленного материала и не желаете чтобы ссылка на него находилась в нашем каталоге, свяжитесь с нами и мы незамедлительно удалим её. Файлы для обмена на трекере предоставлены пользователями сайта, и администрация не несёт ответственности за их содержание. Просьба не заливать файлы, защищенные авторскими правами, а также файлы нелегального содержания!
cron