Синхронность / Synchronicity (2015) WEB-DLRip

Киноновинки, новинки кинопроката, горячие новинки

Модератор: Модераторы видео

  • Статистика раздачи
Размер: 1.44 ГБ   |  Зарегистрирован: 13 мар 2016, 11:05   |   .torrent скачан: 23 раз
Сидеров: 505  [ 0 байт/сек ]     Личеров: 1  [ 0 байт/сек ]  
Список файлов : Кто скачал : Раздают : Скачивают : Кто благодарил : История : Не раздающие : Запрашивали сидеров : Внешние трекеры 
  

Синхронность / Synchronicity (2015) WEB-DLRip

Сообщение Боцман » 13 мар 2016, 11:05

Синхронность / Synchronicity (2015) WEB-DLRip

Производство: США, POP Films
Жанр: Фантастика, Триллер, Детектив

Режиссер: Джейкоб Гентри
Продюсер: Кристофер Алендер, Александр Мотла, Алекс Орр
Актеры: Чад МакНайт, Брианна Дэвис, Эй Джей Боуэн, Скотт Пойтресс, Майкл Айронсайд, Клер Бронсон, Эшли Дрейтон, Дерек Райан Дьюк, Эль Сункара

Описание:
Команда физиков во главе с Джимом Билом строит маленькую копию Большого адронного коллайдера и открывает червоточину в пространственно-временном континууме, делающую путешествия во времени реальностью. Заветное словосочетание будоражит умы корпоративных магнатов, но создатель машины времени, как водится, не хочет, чтобы грязными сапогами топтались по благородному делу. В попытках сохранить права на свое изобретение он встречается с загадочной femme fatale Эбби, но невольно выдает ей все свои секреты. Незадачливый ученый, уверенный что девушка заодно с одним из толстосумов, отправляется в прошлое, чтобы исправить ошибку, но путешествие преподносит ему сюрпризы — правду о девушке, о машине и о будущем самого Джима…


Дата мировой премьеры: 22 июля 2015

Продолжительность: 01:40:39
Качество видео: WEB-DLRip
Перевод: Двуголосый закадровый, любительский (Rustorrents Production)
Субтитры: Отсутствуют
Реклама: Присутствуют голосовые и текстовые вставки рекламы.

Видео: Xvid, 720x304, ~1848 kbps
Аудио: AC3, 2 ch, 192 kbps
Семпл: Скачать
Общее
Полное имя : E:\Synchronicity.2015.L2.WEB-DLRip.NNM-CLUB.avi
Формат : AVI
Формат/Информация : Audio Video Interleave
Размер файла : 1,44 Гбайт
Продолжительность : 1 ч. 40 м.
Общий поток : 2049 Кбит/сек
Программа кодирования : VirtualDubMod 1.5.10.3 | www.virtualdub-fr.org || (build 2550/release)
Библиотека кодирования : VirtualDubMod build 2550/release

Видео
Идентификатор : 0
Формат : MPEG-4 Visual
Профиль формата : Advanced Simple@L5
Параметр BVOP формата : 2
Параметр QPel формата : Нет
Параметр GMC формата : Без точки перехода
Параметр матрицы формата : Default (MPEG)
Идентификатор кодека : XVID
Идентификатор кодека/Подсказка : XviD
Продолжительность : 1 ч. 40 м.
Битрейт : 1848 Кбит/сек
Ширина : 720 пикселей
Высота : 304 пикселя
Соотношение сторон : 2,35:1
Частота кадров : 23,976 кадра/сек
Цветовое пространство : YUV
Субдискретизация насыщенности : 4:2:0
Битовая глубина : 8 бит
Тип развёртки : Прогрессивная
Метод сжатия : С потерями
Бит/(Пиксели*Кадры) : 0.352
Размер потока : 1,30 Гбайт (90%)
Библиотека кодирования : XviD 1.2.1 (UTC 2008-12-04)

Аудио
Идентификатор : 1
Формат : AC-3
Формат/Информация : Audio Coding 3
Расширение режима : CM (complete main)
Параметр Endianness формата : Big
Идентификатор кодека : 2000
Продолжительность : 1 ч. 40 м.
Вид битрейта : Постоянный
Битрейт : 192 Кбит/сек
Каналы : 2 канала
Расположение каналов : Front: L R
Частота : 48,0 КГц
Битовая глубина : 16 бит
Метод сжатия : С потерями
Размер потока : 138 Мбайт (9%)
Выравнивание : Разделение по промежуткам
Продолжительность промежутка : 42 мс. (1,00 видеокадр)
Время предзагрузки промежутка : 500 мс.

Скриншоты:



Время раздачи: 24/7 до 10 скачавших
   
Торрент: Зарегистрирован [13 мар 2016, 11:05] Скачать торрент
Скачать торрент
О MediaGet
[ Размер 15.11 КБ / Просмотров 233 ]

Статус:
 
Приватный: Нет (DHT включён)
Размер: 1.44 ГБ (1 546 807 296 байт)
   
Хочешь стать частью команды MZ-Tracker?
Запишись
ТУТ
Аватара пользователя

Супермодератор
Супермодератор
 
Раздал: 12.57 ГБ
Скачал: 907.51 ГБ
Ратио: 0.017
Сообщения: 4359
Фото: 292
Зарегистрирован: 19 июн 2008, 23:00

  • Похожие торренты
    Ответы
    Просмотры
    Последнее сообщение

Вернуться в Фильмы 2016 (новинки)

Кто сейчас на конференции

Зарегистрированные пользователи: Starsnerus x 1

Ресурс не предоставляет электронные версии произведений, а занимается лишь коллекционированием и каталогизацией ссылок, присылаемых и публикуемых на форуме нашими читателями. Если вы являетесь правообладателем какого-либо представленного материала и не желаете чтобы ссылка на него находилась в нашем каталоге, свяжитесь с нами и мы незамедлительно удалим её. Файлы для обмена на трекере предоставлены пользователями сайта, и администрация не несёт ответственности за их содержание. Просьба не заливать файлы, защищенные авторскими правами, а также файлы нелегального содержания!
cron