Игра на понижение / The Big Short (2015) HDRip [H.264] [Line]

Киноновинки, новинки кинопроката, горячие новинки

Модератор: Модераторы видео

  • Статистика раздачи
Размер: 2.34 ГБ   |  Зарегистрирован: 10 мар 2016, 03:59   |   .torrent скачан: 23 раз
Сидеров: 137  [ 0 байт/сек ]     Личеров: 0  [ 0 байт/сек ]  
Список файлов : Кто скачал : Раздают : Скачивают : Кто благодарил : История : Не раздающие : Запрашивали сидеров : Внешние трекеры 
  

Игра на понижение / The Big Short (2015) HDRip [H.264] [Line]

Сообщение Админ » 10 мар 2016, 03:59

Игра на понижение / The Big Short (2015) HDRip [H.264]

Производство: США, Plan B Entertainment, Regency Enterprises
Жанр: Драма, Комедия, Биография

Режиссер: Адам МакКей
Продюсер: Деде Гарднер, Джереми Клейнер, Арнон Милчен
Актеры: Кристиан Бэйл, Стив Карелл, Райан Гослинг, Брэд Питт, Мелисса Лео, Хамиш Линклэйтер, Джон Магаро, Рейф Сполл, Джереми Стронг, Мариса Томей

Описание:
Когда речь идет о деньгах, совесть молчит. А уж если речь об огромных деньгах!.. Это основанная на реальных событиях история нескольких провидцев, которые независимо друг от друга предсказали мировой экономический кризис 2008 года задолго до того, как о нем зашептались в кулуарах на Уолл-стрит. И предсказав, стали на нем зарабатывать. Сами того не желая.


Возраст: 18+ (зрителям, достигшим 18 лет. запрещено для детей)
Рейтинг MPAA: R (лицам до 17 лет обязательно присутствие взрослого)
Дата мировой премьеры: 12 ноября 2015
Дата премьеры в России: 21 января 2016, «Централ Партнершип»

Продолжительность: 02:10:15
Качество видео: HDRip (H.264)
Перевод: Дублированный (Чистый звук)
Субтитры: Вшитые отключаемые
Язык субтитров: Английский (полные, SDH)

Видео: AVC/H.264, 1024x428, 2000 kbps
Аудио #1: AC3, 2 ch, 192 kbps (русский)
Аудио #2: AC3, 6 ch, 384 kbps (английский)
Код:
Код: Выделить всё
Общее
Уникальный идентификатор                 : 224560162466797249906193974205517948212 (0xA8F0B6D0A464C36C8CA010901E046534)
Полное имя                               : The.Big.Short.2015.D.HDRip.mkv
Формат                                   : Matroska
Версия формата                           : Version 4 / Version 2
Размер файла                             : 2,34 Гбайт
Продолжительность                        : 2 ч. 10 м.
Общий поток                              : 2577 Кбит/сек
Название фильма                          : Игра на понижение / The Big Short (2015)
Дата кодирования                         : UTC 2016-03-07 08:06:54
Программа кодирования                    : mkvmerge v8.3.0 ('Over the Horizon') 64bit
Библиотека кодирования                   : libebml v1.3.1 + libmatroska v1.4.2
Attachements                             : cover.png

Видео
Идентификатор                            : 1
Формат                                   : AVC
Формат/Информация                        : Advanced Video Codec
Профиль формата                          :
Параметр CABAC формата                   : Да
Параметр ReFrames формата                : 10 кадров
Идентификатор кодека                     : V_MPEG4/ISO/AVC
Продолжительность                        : 2 ч. 10 м.
Битрейт                                  : 2000 Кбит/сек
Ширина                                   : 1024 пикселя
Высота                                   : 428 пикселей
Соотношение сторон                       : 2,40:1
Режим частоты кадров                     : Постоянный
Частота кадров                           : 23,976 кадра/сек
Стандарт вещания                         : Component
Цветовое пространство                    : YUV
Субдискретизация насыщенности            : 4:2:0
Битовая глубина                          : 8 бит
Тип развёртки                            : Прогрессивная
Бит/(Пиксели*Кадры)                      : 0.190
Размер потока                            : 1,77 Гбайт (76%)
Библиотека кодирования                   : x264 core 144 r2525
Настройки программы                      : cabac=1 / ref=10 / deblock=1:-2:-2 / analyse=0x3:0x112 / me=umh / subme=9 / psy=1 / psy_rd=1.00:1.00 / mixed_ref=0 / me_range=16 / chroma_me=1 / trellis=1 / 8x8dct=1 / cqm=0 / deadzone=21,11 / fast_pskip=1 / chroma_qp_offset=-4 / threads=6 / lookahead_threads=1 / sliced_threads=0 / nr=0 / decimate=1 / interlaced=0 / bluray_compat=0 / constrained_intra=0 / bframes=10 / b_pyramid=2 / b_adapt=2 / b_bias=6 / direct=3 / weightb=0 / open_gop=0 / weightp=1 / keyint=239 / keyint_min=23 / scenecut=49 / intra_refresh=0 / rc_lookahead=40 / rc=2pass / mbtree=1 / bitrate=2000 / ratetol=1.0 / qcomp=0.80 / qpmin=4 / qpmax=69 / qpstep=10 / cplxblur=20.0 / qblur=0.5 / vbv_maxrate=4200 / vbv_bufsize=3500 / nal_hrd=none / filler=0 / ip_ratio=1.00 / aq=3:1.00
Default                                  : Да
Forced                                   : Нет
Цветовой диапазон                        : Limited
DURATION                                 : 02:10:15.850000000
NUMBER_OF_FRAMES                         : 187393
NUMBER_OF_BYTES                          : 1952194791
_STATISTICS_WRITING_APP                  : mkvmerge v8.3.0 ('Over the Horizon') 64bit
_STATISTICS_WRITING_DATE_UTC             : 2016-03-07 08:06:54
_STATISTICS_TAGS                         : BPS DURATION NUMBER_OF_FRAMES NUMBER_OF_BYTES

Аудио #1
Идентификатор                            : 2
Формат                                   : AC-3
Формат/Информация                        : Audio Coding 3
Расширение режима                        : CM (complete main)
Параметр Endianness формата              : Big
Идентификатор кодека                     : A_AC3
Продолжительность                        : 2 ч. 10 м.
Вид битрейта                             : Постоянный
Битрейт                                  : 192 Кбит/сек
Каналы                                   : 2 канала
Расположение каналов                     : Front: L R
Частота                                  : 48,0 КГц
Метод сжатия                             : С потерями
Задержка видео                           : -41 мс.
Размер потока                            : 179 Мбайт (7%)
Заголовок                                : Дублированный (чистый звук)
Язык                                     : Russian
Default                                  : Да
Forced                                   : Нет

Аудио #2
Идентификатор                            : 3
Формат                                   : AC-3
Формат/Информация                        : Audio Coding 3
Расширение режима                        : CM (complete main)
Параметр Endianness формата              : Big
Идентификатор кодека                     : A_AC3
Продолжительность                        : 2 ч. 10 м.
Вид битрейта                             : Постоянный
Битрейт                                  : 384 Кбит/сек
Каналы                                   : 6 каналов
Расположение каналов                     : Front: L C R, Side: L R, LFE
Частота                                  : 48,0 КГц
Метод сжатия                             : С потерями
Задержка видео                           : -83 мс.
Размер потока                            : 358 Мбайт (15%)
Язык                                     : English
Default                                  : Нет
Forced                                   : Нет

Текст #1
Идентификатор                            : 4
Формат                                   : UTF-8
Идентификатор кодека                     : S_TEXT/UTF8
Идентификатор кодека/Информация          : UTF-8 Plain Text
Заголовок                                : Full
Язык                                     : English
Default                                  : Нет
Forced                                   : Нет

Текст #2
Идентификатор                            : 5
Формат                                   : UTF-8
Идентификатор кодека                     : S_TEXT/UTF8
Идентификатор кодека/Информация          : UTF-8 Plain Text
Заголовок                                : Full SDH
Язык                                     : English
Default                                  : Нет
Forced                                   : Нет

Меню
00:00:00.000                             : en:00:00:00.000
00:09:24.564                             : en:00:09:24.564
00:15:47.572                             : en:00:15:47.572
00:19:03.059                             : en:00:19:03.059
00:25:59.516                             : en:00:25:59.516
00:28:49.978                             : en:00:28:49.978
00:37:24.242                             : en:00:37:24.242
00:42:54.489                             : en:00:42:54.489
00:49:36.682                             : en:00:49:36.682
00:57:01.835                             : en:00:57:01.835
01:02:09.893                             : en:01:02:09.893
01:10:52.957                             : en:01:10:52.957
01:17:03.244                             : en:01:17:03.244
01:20:57.102                             : en:01:20:57.102
01:29:53.221                             : en:01:29:53.221
01:34:37.046                             : en:01:34:37.046
01:41:15.903                             : en:01:41:15.903
01:45:30.491                             : en:01:45:30.491
01:49:34.651                             : en:01:49:34.651
01:55:16.076                             : en:01:55:16.076
02:03:44.500                             : en:02:03:44.500

Скриншоты:


Время раздачи: 24/7 до 10 скачавших
   
Торрент: Зарегистрирован [10 мар 2016, 03:59] Скачать торрент
Скачать торрент
О MediaGet
[ Размер 24.25 КБ / Просмотров 140 ]

Статус:
 
Приватный: Нет (DHT включён)
Размер: 2.34 ГБ (2 517 705 480 байт)
   
Аватара пользователя

Администратор
Администратор
 
Раздал: 2.3 ПБ
Скачал: 1.01 ПБ
Ратио: 2.270
Сообщения: 2997
Зарегистрирован: 07 май 2010, 17:29
Medals: 1
Лучший релиз за месяц (1)
  • Личное сообщение
  • ICQ

  • Похожие торренты
    Ответы
    Просмотры
    Последнее сообщение

Вернуться в Фильмы 2016 (новинки)

Кто сейчас на конференции

Зарегистрированные пользователи: Dom_777, kilinbel, leomartin, Nolimit, sergej-asd

Ресурс не предоставляет электронные версии произведений, а занимается лишь коллекционированием и каталогизацией ссылок, присылаемых и публикуемых на форуме нашими читателями. Если вы являетесь правообладателем какого-либо представленного материала и не желаете чтобы ссылка на него находилась в нашем каталоге, свяжитесь с нами и мы незамедлительно удалим её. Файлы для обмена на трекере предоставлены пользователями сайта, и администрация не несёт ответственности за их содержание. Просьба не заливать файлы, защищенные авторскими правами, а также файлы нелегального содержания!
cron