Защитник / Concussion (2015) BDRip [H.264/720p]

Киноновинки, новинки кинопроката, горячие новинки

Модератор: Модераторы видео

  • Статистика раздачи
Размер: 5.63 ГБ   |  Зарегистрирован: 10 мар 2016, 03:58   |   .torrent скачан: 23 раз
Сидеров: 232  [ 0 байт/сек ]     Личеров: 2  [ 0 байт/сек ]  
Список файлов : Кто скачал : Раздают : Скачивают : Кто благодарил : История : Не раздающие : Запрашивали сидеров : Внешние трекеры 
  

Защитник / Concussion (2015) BDRip [H.264/720p]

Сообщение Админ » 10 мар 2016, 03:58

Защитник / Concussion (2015) BDRip [H.264/720p]
«Даже легендам нужен герой»

Производство: Великобритания, Австралия, США / Cantillon Company, The, LStar Capital, Scott Free Productions
Жанр: драма, биография, спорт

Режиссер: Питер Ландесман
Продюсер: Элизабет Кантильон, Ридли Скотт, Ларри Шуман
Актеры: Уилл Смит, Алек Болдуин, Альберт Брукс, Гугу Эмбата-Ро, Дэвид Морс, Арлисс Ховард, Майк О'Мэлли, Эдди Марсан, Хилл Харпер, Адевале Акинойе-Агбаже

Описание:
Америка потрясена чередой неожиданных и необъяснимых смертей знаменитых спортсменов. Разгадать загадку предстоит талантливому молодому нейрохирургу, но, как оказалось, не все готовы услышать жестокую правду.


Возраст: 16+ (зрителям, достигшим 16 лет)
Рейтинг MPAA: PG-13 (детям до 13 лет просмотр нежелателен)
Дата мировой премьеры: 10 ноября 2015
Дата премьеры РФ: 10 марта 2016

Продолжительность: 02:02:49
Качество видео: BDRip
Перевод: Любительский многоголосый (ColdFilm)
Субтитры: Отсутствуют

Видео: AVC, 1280x536 (2.35:1), 23.976 fps, 4 859 Kbps (0.295 bit/pixel)
Аудио (русский): AC-3, 48.0 KHz, 2 ch, 192 Kbps, CBR
Аудио (английский): DTS, 48.0 KHz, 6 ch, 1 510 Kbps, CBR
Код:
Код: Выделить всё
 Формат                                   : Matroska
Версия формата                           : Version 4 / Version 2
Размер файла                             : 5,63 Гбайт
Продолжительность                        : 2 ч. 2 м.
Общий поток                              : 6562 Кбит/сек
Дата кодирования                         : UTC 2016-03-08 21:27:59
Программа кодирования                    : mkvmerge v8.8.0 ('Wind at my back') 64bit
Библиотека кодирования                   : libebml v1.3.3 + libmatroska v1.4.4
DURATION                                 : 02:02:49.366000000
NUMBER_OF_FRAMES                         : 690878
NUMBER_OF_BYTES                          : 1390046536
_STATISTICS_WRITING_APP                  : mkvmerge v8.8.0 ('Wind at my back') 64bit
_STATISTICS_WRITING_DATE_UTC             : 2016-03-08 21:27:59
_STATISTICS_TAGS                         : BPS DURATION NUMBER_OF_FRAMES NUMBER_OF_BYTES

Видео
Идентификатор                            : 2
Формат                                   : AVC
Формат/Информация                        : Advanced Video Codec
Профиль формата                          :
Параметр CABAC формата                   : Да
Параметр ReFrames формата                : 5 кадров
Идентификатор кодека                     : V_MPEG4/ISO/AVC
Продолжительность                        : 2 ч. 2 м.
Битрейт                                  : 4859 Кбит/сек
Ширина                                   : 1280 пикселей
Высота                                   : 536 пикселей
Соотношение сторон                       : 2,40:1
Режим частоты кадров                     : Постоянный
Частота кадров                           : 23,976 кадра/сек
Цветовое пространство                    : YUV
Субдискретизация насыщенности            : 4:2:0
Битовая глубина                          : 8 бит
Тип развёртки                            : Прогрессивная
Бит/(Пиксели*Кадры)                      : 0.295
Размер потока                            : 4,06 Гбайт (72%)
Библиотека кодирования                   : x264 core 148 r2665 a01e339
Настройки программы                      : cabac=1 / ref=5 / deblock=1:0:0 / analyse=0x3:0x133 / me=umh / subme=7 / psy=1 / psy_rd=1.00:0.00 / mixed_ref=1 / me_range=16 / chroma_me=1 / trellis=1 / 8x8dct=1 / cqm=0 / deadzone=21,11 / fast_pskip=0 / chroma_qp_offset=-2 / threads=17 / lookahead_threads=2 / sliced_threads=0 / nr=0 / decimate=1 / interlaced=0 / bluray_compat=0 / constrained_intra=0 / bframes=3 / b_pyramid=2 / b_adapt=1 / b_bias=0 / direct=1 / weightb=1 / open_gop=0 / weightp=2 / keyint=250 / keyint_min=23 / scenecut=40 / intra_refresh=0 / rc_lookahead=40 / rc=2pass / mbtree=1 / bitrate=4859 / ratetol=1.0 / qcomp=0.60 / qpmin=0 / qpmax=69 / qpstep=4 / cplxblur=20.0 / qblur=0.5 / ip_ratio=1.40 / aq=1:1.00
Язык                                     : English
Default                                  : Да
Forced                                   : Нет

Аудио #1
Идентификатор                            : 1
Формат                                   : AC-3
Формат/Информация                        : Audio Coding 3
Расширение режима                        : CM (complete main)
Параметр Endianness формата              : Big
Идентификатор кодека                     : A_AC3
Продолжительность                        : 2 ч. 2 м.
Вид битрейта                             : Постоянный
Битрейт                                  : 192 Кбит/сек
Каналы                                   : 2 канала
Расположение каналов                     : Front: L R
Частота                                  : 48,0 КГц
Битовая глубина                          : 16 бит
Метод сжатия                             : С потерями
Размер потока                            : 169 Мбайт (3%)
Заголовок                                : MoreFilms
Язык                                     : Russian
Default                                  : Да
Forced                                   : Нет
DURATION                                 : 02:02:49.332000000
NUMBER_OF_FRAMES                         : 176687
NUMBER_OF_BYTES                          : 4475409055
_STATISTICS_WRITING_APP                  : mkvmerge v8.8.0 ('Wind at my back') 64bit
_STATISTICS_WRITING_DATE_UTC             : 2016-03-08 21:27:59
_STATISTICS_TAGS                         : BPS DURATION NUMBER_OF_FRAMES NUMBER_OF_BYTES

Аудио #2
Идентификатор                            : 3
Формат                                   : DTS
Формат/Информация                        : Digital Theater Systems
Режим                                    : 16
Параметр Endianness формата              : Big
Идентификатор кодека                     : A_DTS
Продолжительность                        : 2 ч. 2 м.
Вид битрейта                             : Постоянный
Битрейт                                  : 1509 Кбит/сек
Каналы                                   : 6 каналов
Расположение каналов                     : Front: L C R, Side: L R, LFE
Частота                                  : 48,0 КГц
Битовая глубина                          : 24 бит
Метод сжатия                             : С потерями
Размер потока                            : 1,29 Гбайт (23%)
Язык                                     : English
Default                                  : Нет
Forced                                   : Нет

Меню
00:00:00.000                             : en:00:00:00.000
00:07:26.696                             : en:00:07:26.696
00:14:41.631                             : en:00:14:41.631
00:21:48.098                             : en:00:21:48.098
00:29:36.566                             : en:00:29:36.566
00:37:42.927                             : en:00:37:42.927
00:43:44.539                             : en:00:43:44.539
00:51:30.713                             : en:00:51:30.713
00:59:35.447                             : en:00:59:35.447
01:06:58.264                             : en:01:06:58.264
01:13:07.508                             : en:01:13:07.508
01:22:18.308                             : en:01:22:18.308
01:30:34.721                             : en:01:30:34.721
01:38:15.098                             : en:01:38:15.098
01:46:46.942                             : en:01:46:46.942
01:53:34.808                             : en:01:53:34.808
 

Скриншоты:

   
Торрент: Зарегистрирован [10 мар 2016, 03:58] За каждые 2 ГБ. аплоада (сидирования) этого торрента начисляется бонус: 0.001 Скачать торрент
Скачать торрент
О MediaGet
[ Размер 28.86 КБ / Просмотров 141 ]

Статус:
 
Приватный: Нет (DHT включён)
Размер: 5.63 ГБ (6 044 708 464 байт)
   
Аватара пользователя

Администратор
Администратор
 
Раздал: 2.29 ПБ
Скачал: 1.01 ПБ
Ратио: 2.266
Сообщения: 2967
Зарегистрирован: 07 май 2010, 17:29
Medals: 1
Лучший релиз за месяц (1)
  • Личное сообщение
  • ICQ

  • Похожие торренты
    Ответы
    Просмотры
    Последнее сообщение

Re: Защитник / Concussion (2015) BDRip [H.264/720p]

Сообщение Dryu » 10 мар 2016, 15:05

спасибо
Аватара пользователя
Пир-флудер
Пир-флудер
 
Раздал: 3.64 ТБ
Скачал: 1.32 ТБ
Ратио: 2.797
Сообщения: 625
Зарегистрирован: 03 июл 2009, 15:38
Откуда: Анапа-Сити
  • Личное сообщение
  • ICQ


Вернуться в Фильмы 2016 (новинки)

Кто сейчас на конференции

Зарегистрированные пользователи: Dimkinzx, EAst, kabarda07, kilinbel, Nolimit, Starsnerus x 1, viRUSik

Ресурс не предоставляет электронные версии произведений, а занимается лишь коллекционированием и каталогизацией ссылок, присылаемых и публикуемых на форуме нашими читателями. Если вы являетесь правообладателем какого-либо представленного материала и не желаете чтобы ссылка на него находилась в нашем каталоге, свяжитесь с нами и мы незамедлительно удалим её. Файлы для обмена на трекере предоставлены пользователями сайта, и администрация не несёт ответственности за их содержание. Просьба не заливать файлы, защищенные авторскими правами, а также файлы нелегального содержания!
cron