Песок / The Sand (2015) HDRip

Киноновинки, новинки кинопроката, горячие новинки

Модератор: Модераторы видео

  • Статистика раздачи
Размер: 1.37 ГБ   |  Зарегистрирован: 09 мар 2016, 18:12   |   .torrent скачан: 22 раз
Сидеров: 630  [ 0 байт/сек ]     Личеров: 31  [ 0 байт/сек ]  
Список файлов : Кто скачал : Раздают : Скачивают : Кто благодарил : История : Не раздающие : Запрашивали сидеров : Внешние трекеры 
  

Песок / The Sand (2015) HDRip

Сообщение Админ » 09 мар 2016, 18:12

Песок / The Sand (2015) HDRip

Производство: США / Allegra Pictures, Scatena & Rosener Films
Жанр: Ужасы, Фантастика

Режиссер: Исаак Габаефф
Продюсер: Джордан Роснер, Гато Скатена, Исаак Габаефф
Актеры: Брук Батлер, Джейми Кеннеди, Митчел Муссо, Дин Гейер, Мэган Холдер, Клео Берри, Синтия Марелл, Гектор Дэвид мл., Никки Ли, Брайан Бун

Описание:
После ночной вечеринки, студентики просыпаются утром на пляже, песок которого начинает их засасывать.


Дата мировой премьеры: 28 августа 2015

Продолжительность: 01:24:09
Качество видео: HDRip
Перевод: Двуголосый закадровый, любительский (den904 & DeadSno)
Субтитры: отсутствуют

Видео: Xvid, 720x304, ~1929 Kbps
Аудио: AC3, 6 ch, 384 kbps, CBR
Код:
Код: Выделить всё
Формат                                   : AVI
Формат/Информация                        : Audio Video Interleave
Размер файла                             : 1,37 Гбайт
Продолжительность                        : 1 ч. 24 м.
Общий поток                              : 2322 Кбит/сек
Программа кодирования                    : VirtualDubMod 1.5.10.3 | [url=http://www.virtualdub-fr.org]www.virtualdub-fr.org[/url] || (build 2550/release)
Библиотека кодирования                   : VirtualDubMod build 2550/release

Видео
Идентификатор                            : 0
Формат                                   : MPEG-4 Visual
Профиль формата                          : Advanced Simple@L5
Параметр BVOP формата                    : 2
Параметр QPel формата                    : Нет
Параметр GMC формата                     : Без точки перехода
Параметр матрицы формата                 : Default (H.263)
Идентификатор кодека                     : XVID
Идентификатор кодека/Подсказка           : XviD
Продолжительность                        : 1 ч. 24 м.
Битрейт                                  : 1929 Кбит/сек
Ширина                                   : 720 пикселей
Высота                                   : 304 пикселя
Соотношение сторон                       : 2,35:1
Частота кадров                           : 23,976 кадра/сек
Цветовое пространство                    : YUV
Субдискретизация насыщенности            : 4:2:0
Битовая глубина                          : 8 бит
Тип развёртки                            : Прогрессивная
Метод сжатия                             : С потерями
Бит/(Пиксели*Кадры)                      : 0.368
Размер потока                            : 1,13 Гбайт (83%)
Библиотека кодирования                   : XviD 73

Аудио
Идентификатор                            : 1
Формат                                   : AC-3
Формат/Информация                        : Audio Coding 3
Расширение режима                        : CM (complete main)
Параметр Endianness формата              : Big
Идентификатор кодека                     : 2000
Продолжительность                        : 1 ч. 24 м.
Вид битрейта                             : Постоянный
Битрейт                                  : 384 Кбит/сек
Каналы                                   : 6 каналов
Расположение каналов                     : Front: L C R, Side: L R, LFE
Частота                                  : 48,0 КГц
Метод сжатия                             : С потерями
Размер потока                            : 231 Мбайт (17%)
Выравнивание                             : Разделение по промежуткам
Продолжительность промежутка             : 42  мс. (1,00 видеокадр)
Время предзагрузки промежутка            : 500  мс.

Скриншоты:



Время раздачи: По мере возможности..(до появления первых 3-5 скачавших)
   
Торрент: Зарегистрирован [09 мар 2016, 18:12] Скачать торрент
Скачать торрент
О MediaGet
[ Размер 14.41 КБ / Просмотров 137 ]

Статус:
 
Приватный: Нет (DHT включён)
Размер: 1.37 ГБ (1 465 737 216 байт)
   
Аватара пользователя

Администратор
Администратор
 
Раздал: 2.29 ПБ
Скачал: 1.01 ПБ
Ратио: 2.266
Сообщения: 2960
Зарегистрирован: 07 май 2010, 17:29
Medals: 1
Лучший релиз за месяц (1)
  • Личное сообщение
  • ICQ

  • Похожие торренты
    Ответы
    Просмотры
    Последнее сообщение

Вернуться в Фильмы 2016 (новинки)

Кто сейчас на конференции

Зарегистрированные пользователи: Starsnerus x 1

Ресурс не предоставляет электронные версии произведений, а занимается лишь коллекционированием и каталогизацией ссылок, присылаемых и публикуемых на форуме нашими читателями. Если вы являетесь правообладателем какого-либо представленного материала и не желаете чтобы ссылка на него находилась в нашем каталоге, свяжитесь с нами и мы незамедлительно удалим её. Файлы для обмена на трекере предоставлены пользователями сайта, и администрация не несёт ответственности за их содержание. Просьба не заливать файлы, защищенные авторскими правами, а также файлы нелегального содержания!
cron