Мученицы / Martyrs (2015) HDRip

Киноновинки, новинки кинопроката, горячие новинки

Модератор: Модераторы видео

  • Статистика раздачи
Размер: 1.36 ГБ   |  Зарегистрирован: 08 мар 2016, 14:42   |   .torrent скачан: 5 раз
Сидеров: 370  [ 0 байт/сек ]     Личеров: 94  [ 0 байт/сек ]  
Список файлов : Кто скачал : Раздают : Скачивают : Кто благодарил : История : Не раздающие : Запрашивали сидеров : Внешние трекеры 
  

Мученицы / Martyrs (2015) HDRip

Сообщение Админ » 08 мар 2016, 14:42

Мученицы / Martyrs (2015) HDRip

Производство: США / Blumhouse Productions, Safran Company, The, Temple Hill Entertainmen
Жанр: Ужасы, триллер, драма

Режиссер: Кевин Гетц, Майкл Гетц
Продюсер: Вик Годфри, Питер Сафран, Дэн Клифтон
Актеры: Тройэн Эвери Беллисарио, Кэйтлин Кармайкл, Кейт Бёртон, Бэйли Ноубл, Тоби Хасс, Лекси ДиБенедетто, Тейлор Джон Смит, Диана Хоппер, Блейк Роббинс, Питер Майкл Гец

Описание:
Спустя год после своего исчезновения, десятилетняя Люси неожиданно находится. Девочка так напугана, что не может ни с кем разговаривать и рассказать, что же с ней произошло. Проходит 10 лет. Люси все еще продолжают посещать кошмары и она не оставляет попыток выяснить, что с ней тогда случилось. И когда она, наконец, вместе со своей подругой, приближается вплотную к разгадке тайны, то попадает в новую ловушку. Теперь, если им не удастся найти выход, им грозит страшная и мучительная смерть.


Возраст: 18+ (зрителям, достигшим 18 лет. запрещено для детей)
Дата мировой премьеры: 9 октября 2015
Дата премьеры в России: 4 февраля 2016, «Наше Кино»

Продолжительность: 01:26:40
Качество видео: HDRip
Перевод: Дублированный (iTunes)
Cубтитры: Отсутствуют

Видео: Xvid, 720x304, ~1862 kbps
Аудио: AC3, 6 ch, 384 kbps
Код:
Код: Выделить всё
Общее
Полное имя                               : F:\My4enicy.2015.D.HDRip.NNM-CLUB.avi
Формат                                   : AVI
Формат/Информация                        : Audio Video Interleave
Размер файла                             : 1,36 Гбайт
Продолжительность                        : 1 ч. 26 м.
Общий поток                              : 2255 Кбит/сек
Программа кодирования                    : VirtualDubMod 1.5.10.2 (build 2540/release)
Библиотека кодирования                   : VirtualDubMod build 2540/release

Видео
Идентификатор                            : 0
Формат                                   : MPEG-4 Visual
Профиль формата                          : Advanced Simple@L5
Параметр BVOP формата                    : 2
Параметр QPel формата                    : Нет
Параметр GMC формата                     : Без точки перехода
Параметр матрицы формата                 : Default (MPEG)
Идентификатор кодека                     : XVID
Идентификатор кодека/Подсказка           : XviD
Продолжительность                        : 1 ч. 26 м.
Битрейт                                  : 1862 Кбит/сек
Ширина                                   : 720 пикселей
Высота                                   : 304 пикселя
Соотношение сторон                       : 2,35:1
Частота кадров                           : 23,976 кадра/сек
Цветовое пространство                    : YUV
Субдискретизация насыщенности            : 4:2:0
Битовая глубина                          : 8 бит
Тип развёртки                            : Прогрессивная
Метод сжатия                             : С потерями
Бит/(Пиксели*Кадры)                      : 0.355
Размер потока                            : 1,12 Гбайт (83%)
Библиотека кодирования                   : XviD 1.2.1 (UTC 2008-12-04)

Аудио
Идентификатор                            : 1
Формат                                   : AC-3
Формат/Информация                        : Audio Coding 3
Расширение режима                        : CM (complete main)
Параметр Endianness формата              : Big
Идентификатор кодека                     : 2000
Продолжительность                        : 1 ч. 26 м.
Вид битрейта                             : Постоянный
Битрейт                                  : 384 Кбит/сек
Каналы                                   : 6 каналов
Расположение каналов                     : Front: L C R, Side: L R, LFE
Частота                                  : 48,0 КГц
Битовая глубина                          : 16 бит
Метод сжатия                             : С потерями
Размер потока                            : 237 Мбайт (17%)
Выравнивание                             : Разделение по промежуткам
Продолжительность промежутка             : 42  мс. (1,00 видеокадр)
Время предзагрузки промежутка            : 500  мс.


Скриншоты:



Время раздачи: 24/7 до 10 скачавших
   
Торрент: Зарегистрирован [08 мар 2016, 14:42] Скачать торрент
Скачать торрент
О MediaGet
[ Размер 14.28 КБ / Просмотров 98 ]

Статус:
 
Приватный: Нет (DHT включён)
Размер: 1.36 ГБ (1 461 506 048 байт)
   
Аватара пользователя

Администратор
Администратор
 
Раздал: 2.3 ПБ
Скачал: 1.01 ПБ
Ратио: 2.270
Сообщения: 2997
Зарегистрирован: 07 май 2010, 17:29
Medals: 1
Лучший релиз за месяц (1)
  • Личное сообщение
  • ICQ

  • Похожие торренты
    Ответы
    Просмотры
    Последнее сообщение

Вернуться в Фильмы 2016 (новинки)

Кто сейчас на конференции

Зарегистрированные пользователи: MOBILE666, Nolimit

Ресурс не предоставляет электронные версии произведений, а занимается лишь коллекционированием и каталогизацией ссылок, присылаемых и публикуемых на форуме нашими читателями. Если вы являетесь правообладателем какого-либо представленного материала и не желаете чтобы ссылка на него находилась в нашем каталоге, свяжитесь с нами и мы незамедлительно удалим её. Файлы для обмена на трекере предоставлены пользователями сайта, и администрация не несёт ответственности за их содержание. Просьба не заливать файлы, защищенные авторскими правами, а также файлы нелегального содержания!
cron