Запах мандарина / L'odeur de la mandarine (2015) BDRip [AVO]

Киноновинки, новинки кинопроката, горячие новинки

Модератор: Модераторы видео

  • Статистика раздачи
Размер: 1.47 ГБ   |  Зарегистрирован: 08 мар 2016, 14:42   |   .torrent скачан: 7 раз
Сидеров: 414  [ 0 байт/сек ]     Личеров: 21  [ 0 байт/сек ]  
Список файлов : Кто скачал : Раздают : Скачивают : Кто благодарил : История : Не раздающие : Запрашивали сидеров : Внешние трекеры 
  

Запах мандарина / L'odeur de la mandarine (2015) BDRip [AVO]

Сообщение Админ » 08 мар 2016, 14:42

Запах мандарина / L'odeur de la mandarine (2015) BDRip

Производство: Франция / Davis-Films, Epithète Films, France 3 Cinéma
Жанр: Драма, Мелодрама

Режиссер: Жиль Легран
Продюсер: Фредерик Брильон, Виктор Хадида, Сэмюэл Хадида
Актеры: Оливье Гурме, Джорджия Скаллет, Дмитрий Сторож, Элен Венсан, Марина Валле, Фред Улисс, Роман Бутей, Мишель Робен, Аликс Бенезеч, Юрбен Канселье

Описание:
1918 год. 22-летняя медсестра Анжела, недавно потерявшая мужа на фронте, одна воспитывает дочь. 48-летний кавалерист Шарль потерял в бою ногу и тихо доживает жизнь в своём поместье. Но волею судеб эти два одиноких сердца встречаются - Анжела устраивается в дом Шарля сиделкой. Постепенно между ними возникает чувство привязанности, которое возвращает Шарлю вкус к жизни, но Анжела оказывается не такой простой и наивной девушкой, как может показаться на первый взгляд...


Дата мировой премьеры: 27 августа 2015

Продолжительность: 01:50:57
Качество видео: BDRip
Перевод: Одноголосый закадровый, авторский (Антон Алексеев)
Субтитры: отсутствуют

Видео: Xvid, 720x304, ~1435 kbps
Аудио: AC3, 2 ch, 448 kbps, CBR
Код:
Код: Выделить всё
Формат                                   : AVI
Формат/Информация                        : Audio Video Interleave
Размер файла                             : 1,47 Гбайт
Продолжительность                        : 1 ч. 50 м.
Общий поток                              : 1892 Кбит/сек
Программа кодирования                    : VirtualDubMod 1.5.10.2 (build 2540/release)
Библиотека кодирования                   : VirtualDubMod build 2540/release

Видео
Идентификатор                            : 0
Формат                                   : MPEG-4 Visual
Профиль формата                          : Advanced Simple@L5
Параметр BVOP формата                    : 1
Параметр QPel формата                    : Нет
Параметр GMC формата                     : Без точки перехода
Параметр матрицы формата                 : Default (MPEG)
Идентификатор кодека                     : XVID
Идентификатор кодека/Подсказка           : XviD
Продолжительность                        : 1 ч. 50 м.
Битрейт                                  : 1435 Кбит/сек
Ширина                                   : 720 пикселей
Высота                                   : 304 пикселя
Соотношение сторон                       : 2,35:1
Частота кадров                           : 23,976 кадра/сек
Цветовое пространство                    : YUV
Субдискретизация насыщенности            : 4:2:0
Битовая глубина                          : 8 бит
Тип развёртки                            : Прогрессивная
Метод сжатия                             : С потерями
Бит/(Пиксели*Кадры)                      : 0.273
Размер потока                            : 1,11 Гбайт (76%)
Библиотека кодирования                   : XviD 67

Аудио
Идентификатор                            : 1
Формат                                   : AC-3
Формат/Информация                        : Audio Coding 3
Расширение режима                        : CM (complete main)
Параметр Endianness формата              : Big
Идентификатор кодека                     : 2000
Продолжительность                        : 1 ч. 50 м.
Вид битрейта                             : Постоянный
Битрейт                                  : 448 Кбит/сек
Каналы                                   : 6 каналов
Расположение каналов                     : Front: L C R, Side: L R, LFE
Частота                                  : 48,0 КГц
Метод сжатия                             : С потерями
Размер потока                            : 356 Мбайт (24%)
Выравнивание                             : Разделение по промежуткам
Продолжительность промежутка             : 42  мс. (1,00 видеокадр)
Время предзагрузки промежутка            : 500  мс.

Скриншоты:



Время раздачи: По мере возможности..(до появления первых 3-5 скачавших)
   
Торрент: Зарегистрирован [08 мар 2016, 14:42] Скачать торрент
Скачать торрент
О MediaGet
[ Размер 15.49 КБ / Просмотров 100 ]

Статус:
 
Приватный: Нет (DHT включён)
Размер: 1.47 ГБ (1 574 936 576 байт)
   
Аватара пользователя

Администратор
Администратор
 
Раздал: 2.3 ПБ
Скачал: 1.01 ПБ
Ратио: 2.270
Сообщения: 2997
Зарегистрирован: 07 май 2010, 17:29
Medals: 1
Лучший релиз за месяц (1)
  • Личное сообщение
  • ICQ

  • Похожие торренты
    Ответы
    Просмотры
    Последнее сообщение

Вернуться в Фильмы 2016 (новинки)

Кто сейчас на конференции

Зарегистрированные пользователи: MOBILE666, Nolimit

Ресурс не предоставляет электронные версии произведений, а занимается лишь коллекционированием и каталогизацией ссылок, присылаемых и публикуемых на форуме нашими читателями. Если вы являетесь правообладателем какого-либо представленного материала и не желаете чтобы ссылка на него находилась в нашем каталоге, свяжитесь с нами и мы незамедлительно удалим её. Файлы для обмена на трекере предоставлены пользователями сайта, и администрация не несёт ответственности за их содержание. Просьба не заливать файлы, защищенные авторскими правами, а также файлы нелегального содержания!
cron