Не отбрасывай тени / Cast No Shadow (2014) WEB-DLRip [AVO]

Киноновинки, новинки кинопроката, горячие новинки

Модератор: Модераторы видео

  • Статистика раздачи
Размер: 1.37 ГБ   |  Зарегистрирован: 07 мар 2016, 02:45   |   .torrent скачан: 7 раз
Сидеров: 343  [ 0 байт/сек ]     Личеров: 19  [ 0 байт/сек ]  
Список файлов : Кто скачал : Раздают : Скачивают : Кто благодарил : История : Не раздающие : Запрашивали сидеров : Внешние трекеры 
  

Не отбрасывай тени / Cast No Shadow (2014) WEB-DLRip [AVO]

Сообщение Админ » 07 мар 2016, 02:45

Не отбрасывай тени / Cast No Shadow (2014) WEB-DLRip

Производство: Канада
Жанр: Фэнтези, Триллер, Драма

Режиссер: Кристиан Нил
Актеры: Мэри-Колин Чишолм, Джоэль Томас Хайнс, Гэвин Сноу, Перси Хайнс Уайт

Описание:
Главный герой Джуд Трейнор, трудный подросток, проживающий в приморском городке. После того, как отца Джуда сажают в тюрьму, он начинает дружить с местным отшельником Альфредом и ищет утешение в книгах, но, из-за его богатого воображения, часто оказывается в специфических ситуациях...



Продолжительность: 01:27:28
Качество видео: WEB-DLRip
Перевод: Одноголосый закадровый, авторский (Юрий Сербин)

Видео: Xvid, 720x304, ~2038 kbps
Аудио: AC3, 2 ch, 192 kbps, CBR
Семпл: Скачать
Код:
Код: Выделить всё
Общее
Полное имя                               : D:\FILMЬl\FEBRR\Ne.Otbrasuivaii.Teni.avi
Формат                                   : AVI
Формат/Информация                        : Audio Video Interleave
Профиль формата                          : OpenDML
Размер файла                             : 1,37 Гбайт
Продолжительность                        : 1 ч. 27 м.
Общий поток                              : 2242 Кбит/сек
Программа кодирования                    : XviD4PSP 6.0 / 54.29.105

Видео
Идентификатор                            : 0
Формат                                   : xvid
Идентификатор кодека                     : xvid
Продолжительность                        : 1 ч. 27 м.
Битрейт                                  : 2038 Кбит/сек
Ширина                                   : 720 пикселей
Высота                                   : 304 пикселя
Соотношение сторон                       : 2,40:1
Частота кадров                           : 23,976 кадра/сек
Бит/(Пиксели*Кадры)                      : 0.388
Размер потока                            : 1,25 Гбайт (91%)

Аудио
Идентификатор                            : 1
Формат                                   : AC-3
Формат/Информация                        : Audio Coding 3
Расширение режима                        : CM (complete main)
Параметр Endianness формата              : Big
Идентификатор кодека                     : 2000
Продолжительность                        : 1 ч. 27 м.
Вид битрейта                             : Постоянный
Битрейт                                  : 192 Кбит/сек
Каналы                                   : 2 канала
Расположение каналов                     : Front: L R
Частота                                  : 48,0 КГц
Битовая глубина                          : 16 бит
Метод сжатия                             : С потерями
Размер потока                            : 120 Мбайт (9%)
Выравнивание                             : Соединение по промежуткам
Продолжительность промежутка             : 32  мс. (0,77 видеокадр)

Скриншоты:



Время раздачи: C 09:00 до 23:30 до 5 скачавших (до появления первых 3-5 скачавших)
   
Торрент: Зарегистрирован [07 мар 2016, 02:45] Скачать торрент
Скачать торрент
О MediaGet
[ Размер 14.52 КБ / Просмотров 108 ]

Статус:
 
Приватный: Нет (DHT включён)
Размер: 1.37 ГБ (1 471 086 606 байт)
   
Аватара пользователя

Администратор
Администратор
 
Раздал: 2.3 ПБ
Скачал: 1.01 ПБ
Ратио: 2.270
Сообщения: 2997
Зарегистрирован: 07 май 2010, 17:29
Medals: 1
Лучший релиз за месяц (1)
  • Личное сообщение
  • ICQ

  • Похожие торренты
    Ответы
    Просмотры
    Последнее сообщение

Вернуться в Фильмы 2016 (новинки)

Кто сейчас на конференции

Зарегистрированные пользователи: Nolimit

Ресурс не предоставляет электронные версии произведений, а занимается лишь коллекционированием и каталогизацией ссылок, присылаемых и публикуемых на форуме нашими читателями. Если вы являетесь правообладателем какого-либо представленного материала и не желаете чтобы ссылка на него находилась в нашем каталоге, свяжитесь с нами и мы незамедлительно удалим её. Файлы для обмена на трекере предоставлены пользователями сайта, и администрация не несёт ответственности за их содержание. Просьба не заливать файлы, защищенные авторскими правами, а также файлы нелегального содержания!
cron