Пленник / Captive (2015) BDRip [H.264] [Line]

Киноновинки, новинки кинопроката, горячие новинки

Модератор: Модераторы видео

  • Статистика раздачи
Размер: 1.48 ГБ   |  Зарегистрирован: 06 мар 2016, 04:36   |   .torrent скачан: 7 раз
Сидеров: 679  [ 0 байт/сек ]     Личеров: 47  [ 0 байт/сек ]  
Список файлов : Кто скачал : Раздают : Скачивают : Кто благодарил : История : Не раздающие : Запрашивали сидеров : Внешние трекеры 
  

Пленник / Captive (2015) BDRip [H.264] [Line]

Сообщение Админ » 06 мар 2016, 04:36

Пленник / Captive (2015) BDRip [H.264]

Производство: США
Жанр: Триллер, Драма, Криминал

Режиссер: Джерри Джеймсон
Продюсер: Лукас Акоскин, Терри Ботвик, Алекс Гарсиа
Актеры: Кейт Мара, Мими Роджерс, Майкл Кеннет Уильямс, Дэвид Ойелоуо, Леонор Варела, Мэтт Лоу, Джессика Ойелоуо, Рэймонд Скотт Паркс

Описание:
Мать-одиночка, борющаяся с наркотической зависимостью, взята в заложники в собственной квартире, мужчиной, который сбежал из тюрьмы и убил судью, назначенного на рассмотрение его дела.


Рейтинг MPAA: PG-13 (детям до 13 лет просмотр нежелателен)
Дата мировой премьеры: 17 сентября 2015

Продолжительность: 01:37:08
Качество видео: BDRip
Перевод: Дублированный (чистый звук)
Вид субтитров: Вшитые отключаемые
Язык субтитров: Английский

Видео: AVC/H.264, 1024x576, ~1800 Кбит/с
Аудио #1: AC3, 2 ch, 192 Кбит/с, CBR (русский)
Аудио #2: AC3, 2 ch, 192 Кбит/с, CBR (английский)
Код:
Код: Выделить всё
Общее
Уникальный идентификатор                 : 251412234266400296081703991146706000420 (0xBD243C2B4FFE4A92AA0A335450125A24)
Полное имя                               : Captive.2015.D.BDRip.nnm-club.mkv
Формат                                   : Matroska
Версия формата                           : Version 4 / Version 2
Размер файла                             : 1,48 Гбайт
Продолжительность                        : 1 ч. 37 м.
Общий поток                              : 2186 Кбит/сек
Название фильма                          : Пленник / Captive (2015)
Дата кодирования                         : UTC 2016-03-05 15:39:54
Программа кодирования                    : mkvmerge v8.3.0 ('Over the Horizon') 64bit
Библиотека кодирования                   : libebml v1.3.1 + libmatroska v1.4.2
Attachements                             : cover.jpg

Видео
Идентификатор                            : 1
Формат                                   : AVC
Формат/Информация                        : Advanced Video Codec
Профиль формата                          :
Параметр CABAC формата                   : Да
Параметр ReFrames формата                : 11 кадров
Идентификатор кодека                     : V_MPEG4/ISO/AVC
Продолжительность                        : 1 ч. 37 м.
Битрейт                                  : 1800 Кбит/сек
Ширина                                   : 1024 пикселя
Высота                                   : 576 пикселей
Соотношение сторон                       : 16:9
Режим частоты кадров                     : Постоянный
Частота кадров                           : 23,976 кадра/сек
Стандарт вещания                         : Component
Цветовое пространство                    : YUV
Субдискретизация насыщенности            : 4:2:0
Битовая глубина                          : 8 бит
Тип развёртки                            : Прогрессивная
Бит/(Пиксели*Кадры)                      : 0.127
Размер потока                            : 1,19 Гбайт (80%)
Библиотека кодирования                   : x264 core 144 r2525
Настройки программы                      : cabac=1 / ref=11 / deblock=1:-3:-3 / analyse=0x3:0x112 / me=umh / subme=9 / psy=1 / psy_rd=1.00:1.00 / mixed_ref=0 / me_range=16 / chroma_me=1 / trellis=1 / 8x8dct=1 / cqm=0 / deadzone=21,11 / fast_pskip=1 / chroma_qp_offset=-4 / threads=6 / lookahead_threads=1 / sliced_threads=0 / nr=0 / decimate=1 / interlaced=0 / bluray_compat=0 / constrained_intra=0 / bframes=12 / b_pyramid=2 / b_adapt=2 / b_bias=6 / direct=3 / weightb=0 / open_gop=0 / weightp=1 / keyint=239 / keyint_min=23 / scenecut=49 / intra_refresh=0 / rc_lookahead=40 / rc=2pass / mbtree=1 / bitrate=1800 / ratetol=1.0 / qcomp=0.80 / qpmin=4 / qpmax=69 / qpstep=12 / cplxblur=20.0 / qblur=0.5 / ip_ratio=1.00 / aq=3:1.00
Default                                  : Да
Forced                                   : Нет
Цветовой диапазон                        : Limited

Аудио #1
Идентификатор                            : 2
Формат                                   : AC-3
Формат/Информация                        : Audio Coding 3
Расширение режима                        : CM (complete main)
Параметр Endianness формата              : Big
Идентификатор кодека                     : A_AC3
Продолжительность                        : 1 ч. 37 м.
Вид битрейта                             : Постоянный
Битрейт                                  : 192 Кбит/сек
Каналы                                   : 2 канала
Расположение каналов                     : Front: L R
Частота                                  : 48,0 КГц
Метод сжатия                             : С потерями
Задержка видео                           : -41 мс.
Размер потока                            : 133 Мбайт (9%)
Заголовок                                : Дублированный (чистый звук)
Язык                                     : Russian
Default                                  : Да
Forced                                   : Нет

Аудио #2
Идентификатор                            : 3
Формат                                   : AC-3
Формат/Информация                        : Audio Coding 3
Расширение режима                        : CM (complete main)
Параметр Endianness формата              : Big
Идентификатор кодека                     : A_AC3
Продолжительность                        : 1 ч. 37 м.
Вид битрейта                             : Постоянный
Битрейт                                  : 192 Кбит/сек
Каналы                                   : 2 канала
Расположение каналов                     : Front: L R
Частота                                  : 48,0 КГц
Метод сжатия                             : С потерями
Задержка видео                           : -41 мс.
Размер потока                            : 133 Мбайт (9%)
Язык                                     : English
Default                                  : Нет
Forced                                   : Нет

Текст
Идентификатор                            : 4
Формат                                   : UTF-8
Идентификатор кодека                     : S_TEXT/UTF8
Идентификатор кодека/Информация          : UTF-8 Plain Text
Язык                                     : English
Default                                  : Нет
Forced                                   : Нет

Меню
00:00:00.000                             : en:00:00:00.000
00:05:24.366                             : en:00:05:24.366
00:10:19.244                             : en:00:10:19.244
00:14:30.912                             : en:00:14:30.912
00:19:38.052                             : en:00:19:38.052
00:25:40.664                             : en:00:25:40.664
00:31:23.548                             : en:00:31:23.548
00:37:18.736                             : en:00:37:18.736
00:43:18.179                             : en:00:43:18.179
00:47:06.782                             : en:00:47:06.782
00:52:34.568                             : en:00:52:34.568
00:57:48.507                             : en:00:57:48.507
01:04:46.341                             : en:01:04:46.341
01:11:44.884                             : en:01:11:44.884
01:16:59.031                             : en:01:16:59.031
01:21:53.742                             : en:01:21:53.742
01:27:58.857                             : en:01:27:58.857
01:32:20.368                             : en:01:32:20.368

Скриншоты:



Время раздачи: 24/7 (круглосуточно)
   
Торрент: Зарегистрирован [06 мар 2016, 04:36] Скачать торрент
Скачать торрент
О MediaGet
[ Размер 15.53 КБ / Просмотров 68 ]

Статус:
 
Приватный: Нет (DHT включён)
Размер: 1.48 ГБ (1 592 439 272 байт)
   
Аватара пользователя

Администратор
Администратор
 
Раздал: 2.29 ПБ
Скачал: 1.01 ПБ
Ратио: 2.266
Сообщения: 2967
Зарегистрирован: 07 май 2010, 17:29
Medals: 1
Лучший релиз за месяц (1)
  • Личное сообщение
  • ICQ

  • Похожие торренты
    Ответы
    Просмотры
    Последнее сообщение

Вернуться в Фильмы 2016 (новинки)

Кто сейчас на конференции

Зарегистрированные пользователи: Dimkinzx, EAst, kabarda07, kilinbel, Nolimit, Starsnerus x 1, viRUSik

Ресурс не предоставляет электронные версии произведений, а занимается лишь коллекционированием и каталогизацией ссылок, присылаемых и публикуемых на форуме нашими читателями. Если вы являетесь правообладателем какого-либо представленного материала и не желаете чтобы ссылка на него находилась в нашем каталоге, свяжитесь с нами и мы незамедлительно удалим её. Файлы для обмена на трекере предоставлены пользователями сайта, и администрация не несёт ответственности за их содержание. Просьба не заливать файлы, защищенные авторскими правами, а также файлы нелегального содержания!
cron