Поженить Бэрри / Someone Marry Barry (2013) HDRip

Киноновинки, новинки кинопроката, горячие новинки

Модератор: Модераторы видео

  • Статистика раздачи
Размер: 1.45 ГБ   |  Зарегистрирован: 03 мар 2016, 03:23   |   .torrent скачан: 3 раз
Сидеров: 18  [ 0 байт/сек ]     Личеров: 1  [ 0 байт/сек ]  
Список файлов : Кто скачал : Раздают : Скачивают : Кто благодарил : История : Не раздающие : Запрашивали сидеров : Внешние трекеры 
  

Поженить Бэрри / Someone Marry Barry (2013) HDRip

Сообщение Админ » 03 мар 2016, 03:23

Поженить Бэрри / Someone Marry Barry (2013) HDRip

Производство: США
Жанр: Комедия

Режиссер: Роб Перлштейн
Актеры: Тайлер Лабин, Дэймон Уайанс мл., Люси Панч, Хэйз МакАртур, Томас Миддлдитч, Аманда Ланд, Фрэнки Шоу, Уайатт Олефф, Дж. Робин Миллер, Джинджер Гонзага

Описание:
Трое друзей уже живут счастливой семейной жизнью. Но у них остался четвертый товарищ по имени Бэрри, который все еще не женат. И это не удивительно. Ведь кто сможет терпеть такого отвязного, безумного и безтактного парня? Но троица друзей решила сделать все, чтобы Бэрри женился, ведь это единственный способ избавиться от его назойливых приколов и выходок. Однако все их попытки не увенчались успехом. Однако для Бэрри это не помеха: он все же находит ту единственную, которая понимает его, как никто другой. Еще бы, ведь она ведет себя точь в точь как Бэрри. А такая парочка становится невыносима вдвойне...


Возраст: 16+ зрителям, достигшим 16 лет

Продолжительность: 01:27:01
Качество видео: HDRip
Перевод: Многоголосый закадровый, профессиональный
Вид субтитров: Отсутствуют

Видео: Xvid, 720x384, ~1996 kbps
Аудио: AC3, 6 ch, 384 kbps, CBR
Код:
Код: Выделить всё
Общее
Полное имя                               : D:\KINO 3\2 JANUR\Marry.Barry.RU.avi
Формат                                   : AVI
Формат/Информация                        : Audio Video Interleave
Размер файла                             : 1,45 Гбайт
Продолжительность                        : 1 ч. 27 м.
Общий поток                              : 2390 Кбит/сек
Программа кодирования                    : VirtualDubMod 1.5.10.2 (build 2540/release)
Библиотека кодирования                   : VirtualDubMod build 2540/release

Видео
Идентификатор                            : 0
Формат                                   : MPEG-4 Visual
Профиль формата                          : Advanced Simple@L5
Параметр BVOP формата                    : 1
Параметр QPel формата                    : Нет
Параметр GMC формата                     : Без точки перехода
Параметр матрицы формата                 : Выборочная
Идентификатор кодека                     : XVID
Идентификатор кодека/Подсказка           : XviD
Продолжительность                        : 1 ч. 27 м.
Битрейт                                  : 1996 Кбит/сек
Ширина                                   : 720 пикселей
Высота                                   : 384 пикселя
Соотношение сторон                       : 1,85:1
Частота кадров                           : 23,976 (23976/1000) кадра/сек
Цветовое пространство                    : YUV
Субдискретизация насыщенности            : 4:2:0
Битовая глубина                          : 8 бит
Тип развёртки                            : Прогрессивная
Метод сжатия                             : С потерями
Бит/(Пиксели*Кадры)                      : 0.301
Размер потока                            : 1,21 Гбайт (84%)
Библиотека кодирования                   : XviD 73

Аудио
Идентификатор                            : 1
Формат                                   : AC-3
Формат/Информация                        : Audio Coding 3
Расширение режима                        : CM (complete main)
Параметр Endianness формата              : Big
Идентификатор кодека                     : 2000
Продолжительность                        : 1 ч. 26 м.
Вид битрейта                             : Постоянный
Битрейт                                  : 384 Кбит/сек
Каналы                                   : 6 каналов
Расположение каналов                     : Front: L C R, Side: L R, LFE
Частота                                  : 48,0 КГц
Частота кадров                           : 31,250 кадров/сек (1536 spf)
Метод сжатия                             : С потерями
Размер потока                            : 239 Мбайт (16%)
Выравнивание                             : Разделение по промежуткам
Продолжительность промежутка             : 42  мс. (1,00 видеокадр)
Время предзагрузки промежутка            : 500  мс.

Скриншоты:



Время раздачи: С 09:00 до 23:30 до 5 скачавших (до появления первых 3-5 скачавших)
   
Торрент: Зарегистрирован [03 мар 2016, 03:23] Скачать торрент
Скачать торрент
О MediaGet
[ Размер 15.31 КБ / Просмотров 155 ]

Статус:
 
Приватный: Нет (DHT включён)
Размер: 1.45 ГБ (1 559 748 608 байт)
   
Аватара пользователя

Администратор
Администратор
 
Раздал: 2.3 ПБ
Скачал: 1.01 ПБ
Ратио: 2.270
Сообщения: 2997
Зарегистрирован: 07 май 2010, 17:29
Medals: 1
Лучший релиз за месяц (1)
  • Личное сообщение
  • ICQ

  • Похожие торренты
    Ответы
    Просмотры
    Последнее сообщение

Вернуться в Фильмы 2016 (новинки)

Кто сейчас на конференции

Зарегистрированные пользователи: MOBILE666, Nolimit

Ресурс не предоставляет электронные версии произведений, а занимается лишь коллекционированием и каталогизацией ссылок, присылаемых и публикуемых на форуме нашими читателями. Если вы являетесь правообладателем какого-либо представленного материала и не желаете чтобы ссылка на него находилась в нашем каталоге, свяжитесь с нами и мы незамедлительно удалим её. Файлы для обмена на трекере предоставлены пользователями сайта, и администрация не несёт ответственности за их содержание. Просьба не заливать файлы, защищенные авторскими правами, а также файлы нелегального содержания!
cron