Проклятие ведьминого дерева / Curse of the Witching Tree (2015) DVDRip

Киноновинки, новинки кинопроката, горячие новинки

Модератор: Модераторы видео

  • Статистика раздачи
Размер: 1.38 ГБ   |  Зарегистрирован: 02 мар 2016, 02:55   |   .torrent скачан: 8 раз
Сидеров: 385  [ 0 байт/сек ]     Личеров: 7  [ 0 байт/сек ]  
Список файлов : Кто скачал : Раздают : Скачивают : Кто благодарил : История : Не раздающие : Запрашивали сидеров : Внешние трекеры 
  

Проклятие ведьминого дерева / Curse of the Witching Tree (2015) DVDRip

Сообщение Админ » 02 мар 2016, 02:55

Проклятие ведьминого дерева / Curse of the Witching Tree (2015) DVDRip

Производство: Великобритания
Жанр: Триллер, Ужасы

Режиссер: Джеймс Кроу
Актеры: Сара Роуз Дентон, Люси Джейн Клэрвис, Лоренс Веллер, Чарли Бонд, Вив Бонни, Кэролайн Болтон, Даниэль Бакс, Роб Бирн, Джон Кэмплинг

Описание:
Семья переезжает на новую ферму, где, по слухам, жила ведьма, убивашая собственного сына и еще 9 детей. В то время как отец семейства лежит в коме, а жена и дети надеются на его возвращение к ним, в доме начинает пробуждаться древнее зло, потревоженное шуточным спиритическим сеансом, который провели хулиганы в том самом сарае, где ведьма совершала свои страшные злодеяния...



Продолжительность: 01:42:37
Качество видео: DVDRip
Перевод: Двуголосый закадровый, любительский (2D)

Видео: Xvid, 720x304, ~1727 kbps
Аудио: AC3, 2 ch, 192 kbps, CBR
Семпл: Скачать
Код:
Код: Выделить всё
Общее
Полное имя                               : D:\FILMЬl\FEBRR\Prokljtie.Vedminogo.Dereva.avi
Формат                                   : AVI
Формат/Информация                        : Audio Video Interleave
Размер файла                             : 1,38 Гбайт
Продолжительность                        : 1 ч. 42 м.
Общий поток                              : 1928 Кбит/сек
Программа кодирования                    : VirtualDubMod 1.5.10.3 (build 2550/release)
Библиотека кодирования                   : VirtualDubMod build 2550/release

Видео
Идентификатор                            : 0
Формат                                   : MPEG-4 Visual
Профиль формата                          : Advanced Simple@L5
Параметр BVOP формата                    : 2
Параметр QPel формата                    : Нет
Параметр GMC формата                     : Без точки перехода
Параметр матрицы формата                 : Default (H.263)
Режим смешивания                         : Сжатый битовый поток
Идентификатор кодека                     : XVID
Идентификатор кодека/Подсказка           : XviD
Продолжительность                        : 1 ч. 42 м.
Битрейт                                  : 1727 Кбит/сек
Ширина                                   : 720 пикселей
Высота                                   : 304 пикселя
Соотношение сторон                       : 2,35:1
Частота кадров                           : 23,976 кадра/сек
Цветовое пространство                    : YUV
Субдискретизация насыщенности            : 4:2:0
Битовая глубина                          : 8 бит
Тип развёртки                            : Прогрессивная
Метод сжатия                             : С потерями
Бит/(Пиксели*Кадры)                      : 0.329
Размер потока                            : 1,24 Гбайт (90%)
Библиотека кодирования                   : XviD 73

Аудио
Идентификатор                            : 1
Формат                                   : AC-3
Формат/Информация                        : Audio Coding 3
Расширение режима                        : CM (complete main)
Параметр Endianness формата              : Big
Идентификатор кодека                     : 2000
Продолжительность                        : 1 ч. 42 м.
Вид битрейта                             : Постоянный
Битрейт                                  : 192 Кбит/сек
Каналы                                   : 2 канала
Расположение каналов                     : Front: L R
Частота                                  : 48,0 КГц
Метод сжатия                             : С потерями
Размер потока                            : 141 Мбайт (10%)
Выравнивание                             : Разделение по промежуткам
Продолжительность промежутка             : 42  мс. (1,00 видеокадр)
Время предзагрузки промежутка            : 500  мс.

Скриншоты:



Время раздачи: C 09:00 до 23:30 до 5 скачавших (до появления первых 3-5 скачавших)
   
Торрент: Зарегистрирован [02 мар 2016, 02:55] Скачать торрент
Скачать торрент
О MediaGet
[ Размер 14.67 КБ / Просмотров 91 ]

Статус:
 
Приватный: Нет (DHT включён)
Размер: 1.38 ГБ (1 484 185 600 байт)
   
Аватара пользователя

Администратор
Администратор
 
Раздал: 2.29 ПБ
Скачал: 1.01 ПБ
Ратио: 2.266
Сообщения: 2960
Зарегистрирован: 07 май 2010, 17:29
Medals: 1
Лучший релиз за месяц (1)
  • Личное сообщение
  • ICQ

Вернуться в Фильмы 2016 (новинки)

Кто сейчас на конференции

Зарегистрированные пользователи: Starsnerus x 1

Ресурс не предоставляет электронные версии произведений, а занимается лишь коллекционированием и каталогизацией ссылок, присылаемых и публикуемых на форуме нашими читателями. Если вы являетесь правообладателем какого-либо представленного материала и не желаете чтобы ссылка на него находилась в нашем каталоге, свяжитесь с нами и мы незамедлительно удалим её. Файлы для обмена на трекере предоставлены пользователями сайта, и администрация не несёт ответственности за их содержание. Просьба не заливать файлы, защищенные авторскими правами, а также файлы нелегального содержания!
cron