Крыса / Ratter (2015) WEB-DLRip

Киноновинки, новинки кинопроката, горячие новинки

Модератор: Модераторы видео

  • Статистика раздачи
Размер: 1.37 ГБ   |  Зарегистрирован: 01 мар 2016, 00:06   |   .torrent скачан: 5 раз
Сидеров: 543  [ 0 байт/сек ]     Личеров: 42  [ 0 байт/сек ]  
Список файлов : Кто скачал : Раздают : Скачивают : Кто благодарил : История : Не раздающие : Запрашивали сидеров : Внешние трекеры 
  

Крыса / Ratter (2015) WEB-DLRip

Сообщение Админ » 01 мар 2016, 00:06

Крыса / Ratter (2015) WEB-DLRip

Производство: США, Start Motion Pictures
Жанр: Ужасы, Триллер, Драма

Режиссер: Бренден Крамер
Продюсер: Дэвид Бауш, Бен Браунинг, Джейми Зелеймер
Актеры: Эшли Бенсон, Мэтт МакГорри, Кайли Вернофф, Ребекка Наоми Джонс, Алекс Кранмер, Майкл Уильям Фриман, Джон Андерсон, Карл Глусман, Джереми Фиорентино, Джон Басс

Описание:
За Эммой, аспиранткой живущей одной в Нью-Йорке, начинает следить маньяк, который взламывает всю её окружающую технику — ноутбук, сотовый телефон и другие веб-устройства. Эта одержимость продолжает расти, после того как хакер записывает самые интимные моменты Эммы. Когда ощущений от просмотра не достаточно, ситуация обостряется до опасного и ужасающего уровня.


Дата мировой премьеры: 24 января 2015
Дата премьеры в России: 29 февраля 2016

Продолжительность: 01:20:20
Качество видео: WEB-DLRip
Перевод: Многоголосый закадровый, профессиональный (iTunes)
Вид субтитров: Отсутствуют

Видео: Xvid, 720x384, ~2045 Kbps
Аудио: AC3, 6 ch, 384 kbps, CBR
Семпл: Скачать
Код:
Код: Выделить всё
Общее
Полное имя                               : Ratter.2015.P.WEB-DLRip.avi
Формат                                   : AVI
Формат/Информация                        : Audio Video Interleave
Размер файла                             : 1,37 Гбайт
Продолжительность                        : 1 ч. 20 м.
Общий поток                              : 2438 Кбит/сек
Программа кодирования                    : VirtualDubMod 1.5.10.3 | [url=http://www.virtualdub-fr.org]www.virtualdub-fr.org[/url] || (build 2550/release)
Библиотека кодирования                   : VirtualDubMod build 2550/release

Видео
Идентификатор                            : 0
Формат                                   : MPEG-4 Visual
Профиль формата                          : Advanced Simple@L5
Параметр BVOP формата                    : 2
Параметр QPel формата                    : Нет
Параметр GMC формата                     : Без точки перехода
Параметр матрицы формата                 : Default (MPEG)
Идентификатор кодека                     : XVID
Идентификатор кодека/Подсказка           : XviD
Продолжительность                        : 1 ч. 20 м.
Битрейт                                  : 2045 Кбит/сек
Ширина                                   : 720 пикселей
Высота                                   : 384 пикселя
Соотношение сторон                       : 1,85:1
Частота кадров                           : 23,976 кадра/сек
Цветовое пространство                    : YUV
Субдискретизация насыщенности            : 4:2:0
Битовая глубина                          : 8 бит
Тип развёртки                            : Прогрессивная
Метод сжатия                             : С потерями
Бит/(Пиксели*Кадры)                      : 0.308
Размер потока                            : 1,15 Гбайт (84%)
Библиотека кодирования                   : XviD 1.2.1 (UTC 2008-12-04)

Аудио
Идентификатор                            : 1
Формат                                   : AC-3
Формат/Информация                        : Audio Coding 3
Расширение режима                        : CM (complete main)
Параметр Endianness формата              : Big
Идентификатор кодека                     : 2000
Продолжительность                        : 1 ч. 20 м.
Вид битрейта                             : Постоянный
Битрейт                                  : 384 Кбит/сек
Каналы                                   : 6 каналов
Расположение каналов                     : Front: L C R, Side: L R, LFE
Частота                                  : 48,0 КГц
Метод сжатия                             : С потерями
Размер потока                            : 221 Мбайт (16%)
Выравнивание                             : Разделение по промежуткам
Продолжительность промежутка             : 42  мс. (1,00 видеокадр)
Время предзагрузки промежутка            : 500  мс.

Скриншоты:


Время раздачи: 24/7 (круглосуточно)
   
Торрент: Зарегистрирован [01 мар 2016, 00:06] Скачать торрент
Скачать торрент
О MediaGet
[ Размер 14.45 КБ / Просмотров 114 ]

Статус:
 
Приватный: Нет (DHT включён)
Размер: 1.37 ГБ (1 469 222 912 байт)
   
Аватара пользователя

Администратор
Администратор
 
Раздал: 2.3 ПБ
Скачал: 1.01 ПБ
Ратио: 2.270
Сообщения: 2997
Зарегистрирован: 07 май 2010, 17:29
Medals: 1
Лучший релиз за месяц (1)
  • Личное сообщение
  • ICQ

  • Похожие торренты
    Ответы
    Просмотры
    Последнее сообщение

Вернуться в Фильмы 2016 (новинки)

Кто сейчас на конференции

Зарегистрированные пользователи: MOBILE666, Nolimit

Ресурс не предоставляет электронные версии произведений, а занимается лишь коллекционированием и каталогизацией ссылок, присылаемых и публикуемых на форуме нашими читателями. Если вы являетесь правообладателем какого-либо представленного материала и не желаете чтобы ссылка на него находилась в нашем каталоге, свяжитесь с нами и мы незамедлительно удалим её. Файлы для обмена на трекере предоставлены пользователями сайта, и администрация не несёт ответственности за их содержание. Просьба не заливать файлы, защищенные авторскими правами, а также файлы нелегального содержания!
cron