Моя честь называется верность. Лейбштандарт / My Honor Was Loyalty. Leibstandarte (2015) DVDRip [VO]

Киноновинки, новинки кинопроката, горячие новинки

Модератор: Модераторы видео

  • Статистика раздачи
Размер: 754.79 МБ   |  Зарегистрирован: 01 мар 2016, 00:05   |   .torrent скачан: 5 раз
Сидеров: 639  [ 0 байт/сек ]     Личеров: 29  [ 0 байт/сек ]  
Список файлов : Кто скачал : Раздают : Скачивают : Кто благодарил : История : Не раздающие : Запрашивали сидеров : Внешние трекеры 
  

Моя честь называется верность. Лейбштандарт / My Honor Was Loyalty. Leibstandarte (2015) DVDRip [VO]

Сообщение Админ » 01 мар 2016, 00:05

Моя честь называется верность. Лейбштандарт / My Honor Was Loyalty. Leibstandarte (2015) DVDRip

Производство: Италия, EhKofilms,
Жанр: Военный, Драма

Режиссер: Алессандро Пепе
Актеры: Леоне Фриза, Франческо Мильоре, Паоло Ваккарино, Альбрехт Веймер

Описание:
Унтершарфюрер Зигфрид Херкель, преданный и патриотичный солдат из дивизии СС Лейбштандарт после того, как воевал на разных фронтах, столкнутся с худшим из них: с его собственными мыслями, которые угрожают не только его стране, но и его собственному будущему.



Релиз от: Lord32x Studio
Продолжительность: 01:55:24
Качество видео: DVDRip
Перевод: Одноголосый закадровый
Автор перевода: Lord32x Studio

Видео: Xvid, 688x304, ~777 Кбит/с
Аудио: MP3, 2 ch, 128 Кбит/с, CBR
Код:
Код: Выделить всё
Общее
Полное имя                               : D:\My.Honor.Was.Loyalty.Leibstandarte.2015.DVDRip.750MB.Lord32x.Studio.avi
Формат                                   : AVI
Формат/Информация                        : Audio Video Interleave
Размер файла                             : 755 Мбайт
Продолжительность                        : 1 ч. 55 м.
Общий поток                              : 915 Кбит/сек
Программа кодирования                    : VirtualDubMod 1.5.10.3 | [url=http://www.virtualdub-fr.org]www.virtualdub-fr.org[/url] || (build 2550/release)
Библиотека кодирования                   : VirtualDubMod build 2550/release

Видео
Идентификатор                            : 0
Формат                                   : MPEG-4 Visual
Профиль формата                          : Advanced Simple@L5
Параметр BVOP формата                    : 1
Параметр QPel формата                    : Нет
Параметр GMC формата                     : Без точки перехода
Параметр матрицы формата                 : Default (H.263)
Идентификатор кодека                     : XVID
Идентификатор кодека/Подсказка           : XviD
Продолжительность                        : 1 ч. 55 м.
Битрейт                                  : 777 Кбит/сек
Ширина                                   : 688 пикселей
Высота                                   : 304 пикселя
Соотношение сторон                       : 2,25:1
Частота кадров                           : 25,000 кадров/сек
Цветовое пространство                    : YUV
Субдискретизация насыщенности            : 4:2:0
Битовая глубина                          : 8 бит
Тип развёртки                            : Прогрессивная
Метод сжатия                             : С потерями
Бит/(Пиксели*Кадры)                      : 0.149
Размер потока                            : 641 Мбайт (85%)
Библиотека кодирования                   : XviD 1.2.1 (UTC 2008-12-04)

Аудио
Идентификатор                            : 1
Формат                                   : MPEG Audio
Версия формата                           : Version 1
Профиль формата                          : Layer 3
Режим                                    : Joint stereo
Расширение режима                        : MS Stereo
Идентификатор кодека                     : 55
Идентификатор кодека/Подсказка           : MP3
Продолжительность                        : 1 ч. 55 м.
Вид битрейта                             : Постоянный
Битрейт                                  : 128 Кбит/сек
Каналы                                   : 2 канала
Частота                                  : 48,0 КГц
Метод сжатия                             : С потерями
Размер потока                            : 106 Мбайт (14%)
Выравнивание                             : Соединение по промежуткам
Продолжительность промежутка             : 40  мс. (1,00 видеокадр)
Время предзагрузки промежутка            : 504  мс.

Скриншоты:



Время раздачи: 24/7 (до появления первых 3-5 скачавших)
   
Торрент: Зарегистрирован [01 мар 2016, 00:05] Скачать торрент
Скачать торрент
О MediaGet
[ Размер 15.68 КБ / Просмотров 111 ]

Статус:
 
Приватный: Нет (DHT включён)
Размер: 754.79 МБ (791 457 792 байт)
   
Аватара пользователя

Администратор
Администратор
 
Раздал: 2.3 ПБ
Скачал: 1.01 ПБ
Ратио: 2.270
Сообщения: 2997
Зарегистрирован: 07 май 2010, 17:29
Medals: 1
Лучший релиз за месяц (1)
  • Личное сообщение
  • ICQ

  • Похожие торренты
    Ответы
    Просмотры
    Последнее сообщение

Вернуться в Фильмы 2016 (новинки)

Кто сейчас на конференции

Зарегистрированные пользователи: MOBILE666, Nolimit

Ресурс не предоставляет электронные версии произведений, а занимается лишь коллекционированием и каталогизацией ссылок, присылаемых и публикуемых на форуме нашими читателями. Если вы являетесь правообладателем какого-либо представленного материала и не желаете чтобы ссылка на него находилась в нашем каталоге, свяжитесь с нами и мы незамедлительно удалим её. Файлы для обмена на трекере предоставлены пользователями сайта, и администрация не несёт ответственности за их содержание. Просьба не заливать файлы, защищенные авторскими правами, а также файлы нелегального содержания!
cron