Ставка на любовь (2015) WEB-DL [H.264/1080p-LQ]

Киноновинки, новинки кинопроката, горячие новинки

Модератор: Модераторы видео

  • Статистика раздачи
Размер: 3.11 ГБ   |  Зарегистрирован: 29 фев 2016, 05:52   |   .torrent скачан: 7 раз
Сидеров: 224  [ 0 байт/сек ]     Личеров: 40  [ 0 байт/сек ]  
Список файлов : Кто скачал : Раздают : Скачивают : Кто благодарил : История : Не раздающие : Запрашивали сидеров : Внешние трекеры 
  

Ставка на любовь (2015) WEB-DL [H.264/1080p-LQ]

Сообщение Админ » 29 фев 2016, 05:52

Ставка на любовь (2015) WEB-DL [H.264/1080p-LQ]

Производство: Россия / Yellow, Black & White, Небо
Жанр: Комедия, Мелодрама

Режиссер: Артем Михалков
Продюсер: Эдуард Илоян, Денис Жалинский, Резо Гигинеишвили
Актеры:
Ованнес Азоян, Андрей Бурковский, Катерина Шпица, Ян Цапник, Вадим Андреев, Ольга Тумайкина, Александр Ревва, Дмитрий Хрусталев, Ирина Чипиженко, Алла Михеева

Описание:
Костя и Давид — друзья детства, и вот спустя годы им, наконец, суждено проверить дружбу на прочность. Давид собирается сделать предложение своей возлюбленной, Анне, а Костя хочет выйти в финал международного чемпионата по покеру. Два, казалось бы, совершенно несвязанных события, становятся решающими в жизни друзей, так как Давиду придется играть в покер, а Косте — спасать свадьбу друга! Смогут ли они оставаться собой и спасти положение, поменявшись местами?



Дата премьеры в России: 11 февраля 2016, «Централ Партнершип», «All Media»

Продолжительность: 01:32:01
Качество видео: WEB-DL 1080p-LQ
Перевод: Не требуется (русский) iTunes
Вид субтитров: Отсутствуют

Видео: AVC/H.264, 1920x804, ~4447 kbps
Аудио: AC3, 6 ch, 384 kbps
Код:
Код: Выделить всё
Общее
Уникальный идентификатор                 : 224067177316009640984207623908365217695 (0xA891C4C53EC4B8E98614522D7A5CAF9F)
Полное имя                               : Stavka.Na.Lubov.2015.O.WEB-DL.1080p.nnm-club.mkv
Формат                                   : Matroska
Версия формата                           : Version 4 / Version 2
Размер файла                             : 3,11 Гбайт
Продолжительность                        : 1 ч. 32 м.
Общий поток                              : 4833 Кбит/сек
Дата кодирования                         : UTC 2016-02-28 19:09:17
Программа кодирования                    : mkvmerge v8.3.0 ('Over the Horizon') 64bit
Библиотека кодирования                   : libebml v1.3.1 + libmatroska v1.4.2

Видео
Идентификатор                            : 1
Формат                                   : AVC
Формат/Информация                        : Advanced Video Codec
Профиль формата                          : High@L4
Параметр CABAC формата                   : Да
Параметр ReFrames формата                : 5 кадров
Идентификатор кодека                     : V_MPEG4/ISO/AVC
Продолжительность                        : 1 ч. 32 м.
Битрейт                                  : 4447 Кбит/сек
Ширина                                   : 1920 пикселей
Высота                                   : 804 пикселя
Соотношение сторон                       : 2,40:1
Режим частоты кадров                     : Постоянный
Частота кадров                           : 24,000 кадра/сек
Цветовое пространство                    : YUV
Субдискретизация насыщенности            : 4:2:0
Битовая глубина                          : 8 бит
Тип развёртки                            : Прогрессивная
Бит/(Пиксели*Кадры)                      : 0.120
Размер потока                            : 2,86 Гбайт (92%)
Язык                                     : English
Default                                  : Да
Forced                                   : Нет
colour_range                             : Limited
Основные цвета                           : BT.709
Характеристики трансфера                 : BT.709
Коэффициенты матрицы                     : BT.709

Аудио
Идентификатор                            : 2
Формат                                   : AC-3
Формат/Информация                        : Audio Coding 3
Расширение режима                        : CM (complete main)
Параметр Endianness формата              : Big
Идентификатор кодека                     : A_AC3
Продолжительность                        : 1 ч. 32 м.
Вид битрейта                             : Постоянный
Битрейт                                  : 384 Кбит/сек
Каналы                                   : 6 каналов
Расположение каналов                     : Front: L C R, Side: L R, LFE
Частота                                  : 48,0 КГц
Частота кадров                           : 31,250 кадров/сек (1536 spf)
Метод сжатия                             : С потерями
Размер потока                            : 253 Мбайт (8%)
Язык                                     : Russian
Default                                  : Да
Forced                                   : Нет

Меню
00:00:00.000                             : en:Глава 1
00:06:03.458                             : en:Глава 2
00:11:13.041                             : en:Глава 3
00:16:42.707                             : en:Глава 4
00:23:10.290                             : en:Глава 5
00:29:08.915                             : en:Глава 6
00:34:10.998                             : en:Глава 7
00:39:49.664                             : en:Глава 8
00:45:27.955                             : en:Глава 9
00:51:25.621                             : en:Глава 10
00:56:42.246                             : en:Глава 11
01:01:55.912                             : en:Глава 12
01:07:32.287                             : en:Глава 13
01:13:08.453                             : en:Глава 14
01:18:57.036                             : en:Глава 15
01:24:27.036                             : en:Глава 16

Скриншоты:



Время раздачи: до появления первых 3-5 скачавших
   
Торрент: Зарегистрирован [29 фев 2016, 05:52] Скачать торрент
Скачать торрент
О MediaGet
[ Размер 16.36 КБ / Просмотров 140 ]

Статус:
 
Приватный: Нет (DHT включён)
Размер: 3.11 ГБ (3 335 713 070 байт)
   
Аватара пользователя

Администратор
Администратор
 
Раздал: 2.3 ПБ
Скачал: 1.01 ПБ
Ратио: 2.270
Сообщения: 2997
Зарегистрирован: 07 май 2010, 17:29
Medals: 1
Лучший релиз за месяц (1)
  • Личное сообщение
  • ICQ

  • Похожие торренты
    Ответы
    Просмотры
    Последнее сообщение

Вернуться в Фильмы 2016 (новинки)

Кто сейчас на конференции

Зарегистрированные пользователи: MOBILE666, Nolimit

Ресурс не предоставляет электронные версии произведений, а занимается лишь коллекционированием и каталогизацией ссылок, присылаемых и публикуемых на форуме нашими читателями. Если вы являетесь правообладателем какого-либо представленного материала и не желаете чтобы ссылка на него находилась в нашем каталоге, свяжитесь с нами и мы незамедлительно удалим её. Файлы для обмена на трекере предоставлены пользователями сайта, и администрация не несёт ответственности за их содержание. Просьба не заливать файлы, защищенные авторскими правами, а также файлы нелегального содержания!
cron