Незнакомец / El desconocido (2015) BDRip [H.264/1080p]

Киноновинки, новинки кинопроката, горячие новинки

Модератор: Модераторы видео

  • Статистика раздачи
Размер: 7.48 ГБ   |  Зарегистрирован: 29 фев 2016, 01:45   |   .torrent скачан: 4 раз
Сидеров: 196  [ 0 байт/сек ]     Личеров: 14  [ 0 байт/сек ]  
Список файлов : Кто скачал : Раздают : Скачивают : Кто благодарил : История : Не раздающие : Запрашивали сидеров : Внешние трекеры 
  

Незнакомец / El desconocido (2015) BDRip [H.264/1080p]

Сообщение Админ » 29 фев 2016, 01:45

Незнакомец / El desconocido (2015) BDRip [H.264/1080p]

Производство: Испания, Atresmedia Cine, La Ferme! Productions, Televisin de Galicia (TVG) S.A., Vaca Films
Жанр: Триллер

Режиссер: Дэни Де Ла Торре
Актеры: Луис Тосар, Хавьер Гутьеррес, Эльвира Мингес, Фернандо Кайо, Гойя Толедо, Паула дель Рио, Марко Санс, Антонио Моурелос, Рикардо де Баррейро, Мария Мера

Описание:
Находясь в машине вместе со своими детьми, управляющий банка получает анонимный телефонный звонок. Незнакомый голос сообщает ему, что у него есть всего несколько часов, на то, чтобы найти большую сумму денег, иначе бомба под его сиденьем взорвется…


Дата мировой премьеры: 2 сентября 2015

Продолжительность: 01:40:31
Качество видео: BDRip
Перевод: Профессиональный многоголосый (Paradox & Omskbird records)
Субтитры: Английские, испанские, французские (вшитые, отключаемые)

Видео: AVC, 1920x824 (2.35:1), 23.976 fps, 9 372 Kbps (0.247 bit/pixel)
Аудио: AC-3, 48.0 KHz, 6 ch, 640 Kbps, CBR (Russian)
Аудио: AC-3, 48.0 KHz, 6 ch, 640 Kbps, CBR (Spanish)
Код:
Код: Выделить всё
 Формат                                   : Matroska
Версия формата                           : Version 2
Размер файла                             : 7,48 Гбайт
Продолжительность                        : 1 ч. 40 м.
Общий поток                              : 10,7 Мбит/сек
Дата кодирования                         : UTC 2016-02-27 22:20:29
Программа кодирования                    : mkvmerge v8.3.0 ('Over the Horizon') 64bit
Библиотека кодирования                   : libebml v1.3.1 + libmatroska v1.4.2
DURATION                                 : 01:40:31.808000000
NUMBER_OF_FRAMES                         : 188494
NUMBER_OF_BYTES                          : 482544640
_STATISTICS_WRITING_APP                  : mkvmerge v8.3.0 ('Over the Horizon') 64bit
_STATISTICS_WRITING_DATE_UTC             : 2016-02-27 22:20:29
_STATISTICS_TAGS                         : BPS DURATION NUMBER_OF_FRAMES NUMBER_OF_BYTES

Видео
Идентификатор                            : 1
Формат                                   : AVC
Формат/Информация                        : Advanced Video Codec
Профиль формата                          :
Параметр CABAC формата                   : Да
Параметр ReFrames формата                : 5 кадров
Идентификатор кодека                     : V_MPEG4/ISO/AVC
Продолжительность                        : 1 ч. 40 м.
Битрейт                                  : 9372 Кбит/сек
Ширина                                   : 1920 пикселей
Высота                                   : 824 пикселя
Соотношение сторон                       : 2,35:1
Режим частоты кадров                     : Постоянный
Частота кадров                           : 23,976 кадра/сек
Цветовое пространство                    : YUV
Субдискретизация насыщенности            : 4:2:0
Битовая глубина                          : 8 бит
Тип развёртки                            : Прогрессивная
Бит/(Пиксели*Кадры)                      : 0.247
Размер потока                            : 6,43 Гбайт (86%)
Библиотека кодирования                   : x264 core 148 r2638 7599210
Настройки программы                      : cabac=1 / ref=5 / deblock=1:0:0 / analyse=0x3:0x133 / me=umh / subme=7 / psy=1 / psy_rd=1.00:0.00 / mixed_ref=1 / me_range=16 / chroma_me=1 / trellis=1 / 8x8dct=1 / cqm=0 / deadzone=21,11 / fast_pskip=0 / chroma_qp_offset=-2 / threads=12 / lookahead_threads=2 / sliced_threads=0 / nr=0 / decimate=1 / interlaced=0 / bluray_compat=0 / constrained_intra=0 / bframes=3 / b_pyramid=2 / b_adapt=2 / b_bias=0 / direct=3 / weightb=1 / open_gop=0 / weightp=2 / keyint=250 / keyint_min=23 / scenecut=40 / intra_refresh=0 / rc_lookahead=50 / rc=2pass / mbtree=1 / bitrate=9372 / ratetol=1.0 / qcomp=0.60 / qpmin=0 / qpmax=69 / qpstep=4 / cplxblur=20.0 / qblur=0.5 / ip_ratio=1.40 / aq=1:1.00
Язык                                     : English
Default                                  : Да
Forced                                   : Нет
DURATION                                 : 01:40:31.702000000
NUMBER_OF_FRAMES                         : 144616
NUMBER_OF_BYTES                          : 7063682673
_STATISTICS_WRITING_APP                  : mkvmerge v8.3.0 ('Over the Horizon') 64bit
_STATISTICS_WRITING_DATE_UTC             : 2016-02-27 22:20:29
_STATISTICS_TAGS                         : BPS DURATION NUMBER_OF_FRAMES NUMBER_OF_BYTES

Аудио #1
Идентификатор                            : 2
Формат                                   : AC-3
Формат/Информация                        : Audio Coding 3
Расширение режима                        : CM (complete main)
Параметр Endianness формата              : Big
Идентификатор кодека                     : A_AC3
Продолжительность                        : 1 ч. 40 м.
Вид битрейта                             : Постоянный
Битрейт                                  : 640 Кбит/сек
Каналы                                   : 6 каналов
Расположение каналов                     : Front: L C R, Side: L R, LFE
Частота                                  : 48,0 КГц
Битовая глубина                          : 16 бит
Метод сжатия                             : С потерями
Размер потока                            : 460 Мбайт (6%)
Язык                                     : Russian
Default                                  : Да
Forced                                   : Нет

Аудио #2
Идентификатор                            : 3
Формат                                   : AC-3
Формат/Информация                        : Audio Coding 3
Расширение режима                        : CM (complete main)
Параметр Endianness формата              : Big
Идентификатор кодека                     : A_AC3
Продолжительность                        : 1 ч. 40 м.
Вид битрейта                             : Постоянный
Битрейт                                  : 640 Кбит/сек
Каналы                                   : 6 каналов
Расположение каналов                     : Front: L C R, Side: L R, LFE
Частота                                  : 48,0 КГц
Битовая глубина                          : 16 бит
Метод сжатия                             : С потерями
Размер потока                            : 460 Мбайт (6%)
Язык                                     : Spanish
Default                                  : Нет
Forced                                   : Нет

Текст #1
Идентификатор                            : 4
Формат                                   : UTF-8
Идентификатор кодека                     : S_TEXT/UTF8
Идентификатор кодека/Информация          : UTF-8 Plain Text
Язык                                     : English
Default                                  : Нет
Forced                                   : Нет

Текст #2
Идентификатор                            : 5
Формат                                   : UTF-8
Идентификатор кодека                     : S_TEXT/UTF8
Идентификатор кодека/Информация          : UTF-8 Plain Text
Язык                                     : French
Default                                  : Нет
Forced                                   : Нет

Текст #3
Идентификатор                            : 6
Формат                                   : UTF-8
Идентификатор кодека                     : S_TEXT/UTF8
Идентификатор кодека/Информация          : UTF-8 Plain Text
Язык                                     : Spanish
Default                                  : Нет
Forced                                   : Нет

Меню
00:00:00.000                             : en:Chapter 1
00:04:22.095                             : en:Chapter 2
00:17:33.761                             : en:Chapter 3
00:24:22.044                             : en:Chapter 4
00:32:09.427                             : en:Chapter 5
00:41:08.007                             : en:Chapter 6
00:50:37.284                             : en:Chapter 7
01:01:24.514                             : en:Chapter 8
01:08:55.340                             : en:Chapter 9
01:19:07.785                             : en:Chapter 10
01:25:34.379                             : en:Chapter 11
01:35:15.251                             : en:Chapter 12
 

Скриншоты:

   
Торрент: Зарегистрирован [29 фев 2016, 01:45] За каждые 2 ГБ. аплоада (сидирования) этого торрента начисляется бонус: 0.001 Скачать торрент
Скачать торрент
О MediaGet
[ Размер 38.12 КБ / Просмотров 107 ]

Статус:
 
Приватный: Нет (DHT включён)
Размер: 7.48 ГБ (8 030 803 807 байт)
   
Аватара пользователя

Администратор
Администратор
 
Раздал: 2.3 ПБ
Скачал: 1.01 ПБ
Ратио: 2.268
Сообщения: 2977
Зарегистрирован: 07 май 2010, 17:29
Medals: 1
Лучший релиз за месяц (1)
  • Личное сообщение
  • ICQ

  • Похожие торренты
    Ответы
    Просмотры
    Последнее сообщение

Вернуться в Фильмы 2016 (новинки)

Кто сейчас на конференции

Зарегистрированные пользователи: sergey_tr, ЗУРБАГАН

Ресурс не предоставляет электронные версии произведений, а занимается лишь коллекционированием и каталогизацией ссылок, присылаемых и публикуемых на форуме нашими читателями. Если вы являетесь правообладателем какого-либо представленного материала и не желаете чтобы ссылка на него находилась в нашем каталоге, свяжитесь с нами и мы незамедлительно удалим её. Файлы для обмена на трекере предоставлены пользователями сайта, и администрация не несёт ответственности за их содержание. Просьба не заливать файлы, защищенные авторскими правами, а также файлы нелегального содержания!
cron