Боевой механизм / Swap / Weaponized (2016) HDRip

Киноновинки, новинки кинопроката, горячие новинки

Модератор: Модераторы видео

  • Статистика раздачи
Размер: 1.45 ГБ   |  Зарегистрирован: 28 фев 2016, 03:35   |   .torrent скачан: 12 раз
Сидеров: 392  [ 0 байт/сек ]     Личеров: 294  [ 0 байт/сек ]  
Список файлов : Кто скачал : Раздают : Скачивают : Кто благодарил : История : Не раздающие : Запрашивали сидеров : Внешние трекеры 
  

Боевой механизм / Swap / Weaponized (2016) HDRip

Сообщение Админ » 28 фев 2016, 03:35

Боевой механизм / Swap / Weaponized (2016) HDRip

Производство: США
Жанр: Фантастика, боевик, Триллер

Режиссер: Тимоти Вудворд мл.
Актеры: Том Сайзмор, Джонни Месснер, Микки Рурк, Тейлор Коул, Джон Фу, Майкл Паре, Крис Дэймон, Каллен Дж. Чэмберс,Тимоти Вудворд мл., Джон Лофлин

Описание:
Ближайшее будущее, биотехнологии достигли достаточного уровня, чтобы интегрировать воедино человеческую плоть
и боевую роботизированную броню. В секретных лабораториях созданы первые практически непобедимые солдаты-киборги. Полицейский детектив, расследуя убийство своего сына - жертвы теракта, решает перепрограммировать киборгов и направить их против виновной террористической группировки. Однако, вирус, которым он заражает командную систему биороботов превращает их в бесжалостных убийц всего живого вокруг...


Дата мировой премьеры: 1 Марта 2016

Продолжительность: 01:30:58
Качество видео: HDRip
Перевод: Двуголосый закадровый, любительский (Parovoz Production)
Вид субтитров: Отсутствуют

Видео: Xvid, 720x304, ~1887 kbps
Аудио: AC3, 2 ch, 192 kbps (Русский)
Аудио: AC3, 2 ch, 192 kbps (Ангийский)
Семпл: Скачать
Код:
Код: Выделить всё
Общее
Полное имя                               : Boevoy.Mexanizm.2016.L2.HDRip.1.46MB.nnm-club.avi
Формат                                   : AVI
Формат/Информация                        : Audio Video Interleave
Размер файла                             : 1,45 Гбайт
Продолжительность                        : 1 ч. 30 м.
Общий поток                              : 2285 Кбит/сек
Программа кодирования                    : VirtualDubMod 1.5.10.3 | | (build 2550/release)
Библиотека кодирования                   : VirtualDubMod build 2550/release

Видео
Идентификатор                            : 0
Формат                                   : MPEG-4 Visual
Профиль формата                          : Advanced Simple@L5
Параметр BVOP формата                    : 1
Параметр QPel формата                    : Нет
Параметр GMC формата                     : Без точки перехода
Параметр матрицы формата                 : Выборочная
Идентификатор кодека                     : XVID
Идентификатор кодека/Подсказка           : XviD
Продолжительность                        : 1 ч. 30 м.
Битрейт                                  : 1887 Кбит/сек
Ширина                                   : 720 пикселей
Высота                                   : 304 пикселя
Соотношение сторон                       : 2,35:1
Частота кадров                           : 23,976 (23976/1000) кадра/сек
Цветовое пространство                    : YUV
Субдискретизация насыщенности            : 4:2:0
Битовая глубина                          : 8 бит
Тип развёртки                            : Прогрессивная
Метод сжатия                             : С потерями
Бит/(Пиксели*Кадры)                      : 0.360
Размер потока                            : 1,20 Гбайт (83%)
Библиотека кодирования                   : XviD 73

Аудио #1
Идентификатор                            : 1
Формат                                   : AC-3
Формат/Информация                        : Audio Coding 3
Расширение режима                        : CM (complete main)
Параметр Endianness формата              : Big
Идентификатор кодека                     : 2000
Продолжительность                        : 1 ч. 30 м.
Вид битрейта                             : Постоянный
Битрейт                                  : 192 Кбит/сек
Каналы                                   : 2 канала
Расположение каналов                     : Front: L R
Частота                                  : 48,0 КГц
Частота кадров                           : 31,250 кадров/сек (1536 spf)
Метод сжатия                             : С потерями
Размер потока                            : 125 Мбайт (8%)
Выравнивание                             : Разделение по промежуткам
Продолжительность промежутка             : 42  мс. (1,00 видеокадр)
Время предзагрузки промежутка            : 500  мс.

Аудио #2
Идентификатор                            : 2
Формат                                   : AC-3
Формат/Информация                        : Audio Coding 3
Расширение режима                        : CM (complete main)
Параметр Endianness формата              : Big
Идентификатор кодека                     : 2000
Продолжительность                        : 1 ч. 30 м.
Вид битрейта                             : Постоянный
Битрейт                                  : 192 Кбит/сек
Каналы                                   : 2 канала
Расположение каналов                     : Front: L R
Частота                                  : 48,0 КГц
Частота кадров                           : 31,250 кадров/сек (1536 spf)
Метод сжатия                             : С потерями
Размер потока                            : 125 Мбайт (8%)
Выравнивание                             : Разделение по промежуткам
Продолжительность промежутка             : 42  мс. (1,00 видеокадр)
Время предзагрузки промежутка            : 500  мс.

Скриншоты:



Время раздачи: (до появления первых 3-5 скачавших)
   
Торрент: Зарегистрирован [28 фев 2016, 03:35] Скачать торрент
Скачать торрент
О MediaGet
[ Размер 15.35 КБ / Просмотров 110 ]

Статус:
 
Приватный: Нет (DHT включён)
Размер: 1.45 ГБ (1 559 418 880 байт)
   
Аватара пользователя

Администратор
Администратор
 
Раздал: 2.3 ПБ
Скачал: 1.01 ПБ
Ратио: 2.270
Сообщения: 2997
Зарегистрирован: 07 май 2010, 17:29
Medals: 1
Лучший релиз за месяц (1)
  • Личное сообщение
  • ICQ

  • Похожие торренты
    Ответы
    Просмотры
    Последнее сообщение

Вернуться в Фильмы 2016 (новинки)

Кто сейчас на конференции

Зарегистрированные пользователи: Nolimit

Ресурс не предоставляет электронные версии произведений, а занимается лишь коллекционированием и каталогизацией ссылок, присылаемых и публикуемых на форуме нашими читателями. Если вы являетесь правообладателем какого-либо представленного материала и не желаете чтобы ссылка на него находилась в нашем каталоге, свяжитесь с нами и мы незамедлительно удалим её. Файлы для обмена на трекере предоставлены пользователями сайта, и администрация не несёт ответственности за их содержание. Просьба не заливать файлы, защищенные авторскими правами, а также файлы нелегального содержания!
cron