Дэдпул / Deadpool (2016) CamRip

Киноновинки, новинки кинопроката, горячие новинки

Модератор: Модераторы видео

  • Статистика раздачи
Размер: 2.05 ГБ   |  Зарегистрирован: 28 фев 2016, 03:32   |   .torrent скачан: 29 раз
Сидеров: 515  [ 0 байт/сек ]     Личеров: 21  [ 0 байт/сек ]  
Список файлов : Кто скачал : Раздают : Скачивают : Кто благодарил : История : Не раздающие : Запрашивали сидеров : Внешние трекеры 
  

Дэдпул / Deadpool (2016) CamRip

Сообщение Админ » 28 фев 2016, 03:32

Дэдпул / Deadpool (2016) CamRip

Производство: США , Marvel Enterprises, TSG Entertainment, Twentieth Century Fox Film Corporation
Жанр: боевик, Фантастика

Режиссер: Тим Миллер
Актеры: Райан Рейнольдс, Морена Баккарин, Джина Карано, ТиДжей Миллер, Эд Скрейн, Рэйчел Шин, Брианна Хилдебранд, Андре Трикоте, Тэйлор Хиксон, Джед Риис.

Описание:
Уэйд Уилсон — наемник. Будучи побочным продуктом программы вооруженных сил под названием «Оружие Х», Уилсон приобрел невероятную силу, проворство и исцеляющий фактор. Но страшной ценой: его клеточная структура постоянно меняется, а его здравомыслие сомнительно. Все чего Уилсон хочет — это держаться на плаву в социальной выгребной яме. Но течение в ней слишком быстрое.


Дата мировой премьеры: 21 января 2016
Дата премьеры в России: 11 февраля 2016, «Двадцатый Век Фокс СНГ»

Продолжительность: 01:40:44
Качество видео: CamRip
Перевод: Дублированный

Видео: MPEG4, , 720x320 (2.25:1), ~2 539 Kbps (0.460 bit/pixel)
Аудио: MP3, 2 ch, 44.1 KHz, 320 Kbps, CBR
Семпл:
Код:
Код: Выделить всё
Общее
Уникальный идентификатор                 : 242474038316347095583124338266515944290 (0xB66ACD15BDC24B3391D99C3F8CC7B362)
Полное имя                               : J:\Deadpool.2016.avi
Формат                                   : Matroska
Версия формата                           : Version 4 / Version 2
Размер файла                             : 2,05 Гбайт
Продолжительность                        : 1 ч. 40 м.
Общий поток                              : 2917 Кбит/сек
Дата кодирования                         : UTC 2016-02-27 02:07:25
Программа кодирования                    : mkvmerge v8.3.0 ('Over the Horizon') 64bit
Библиотека кодирования                   : libebml v1.3.1 + libmatroska v1.4.2

Видео
Идентификатор                            : 1
Формат                                   : MPEG-4 Visual
Профиль формата                          : Simple@L1
Параметр BVOP формата                    : Нет
Параметр QPel формата                    : Нет
Параметр GMC формата                     : Без точки перехода
Параметр матрицы формата                 : Default (H.263)
Идентификатор кодека                     : V_MS/VFW/FOURCC / FMP4
Продолжительность                        : 1 ч. 40 м.
Битрейт                                  : 2596 Кбит/сек
Ширина                                   : 720 пикселей
Высота                                   : 320 пикселей
Соотношение сторон                       : 2,25:1
Режим частоты кадров                     : Постоянный
Частота кадров                           : 23,976 кадра/сек
Цветовое пространство                    : YUV
Субдискретизация насыщенности            : 4:2:0
Битовая глубина                          : 8 бит
Тип развёртки                            : Прогрессивная
Метод сжатия                             : С потерями
Бит/(Пиксели*Кадры)                      : 0.470
Размер потока                            : 1,83 Гбайт (89%)
Библиотека кодирования                   : Lavc56.26.100
Default                                  : Да
Forced                                   : Нет

Аудио
Идентификатор                            : 2
Формат                                   : MPEG Audio
Версия формата                           : Version 1
Профиль формата                          : Layer 3
Идентификатор кодека                     : A_MPEG/L3
Идентификатор кодека/Подсказка           : MP3
Продолжительность                        : 1 ч. 40 м.
Вид битрейта                             : Постоянный
Битрейт                                  : 320 Кбит/сек
Каналы                                   : 2 канала
Частота                                  : 44,1 КГц
Частота кадров                           : 38,281 кадров/сек (1152 spf)
Метод сжатия                             : С потерями
Размер потока                            : 231 Мбайт (11%)
Default                                  : Да
Forced                                   : Нет
Скриншоты:

Время раздачи: до 5 скачавших (до появления первых 3-5 скачавших)
   
Торрент: Зарегистрирован [28 фев 2016, 03:32] Скачать торрент
Скачать торрент
О MediaGet
[ Размер 10.92 КБ / Просмотров 164 ]

Статус:
 
Приватный: Нет (DHT включён)
Размер: 2.05 ГБ (2 204 247 221 байт)
   
Аватара пользователя

Администратор
Администратор
 
Раздал: 2.3 ПБ
Скачал: 1.01 ПБ
Ратио: 2.268
Сообщения: 2977
Зарегистрирован: 07 май 2010, 17:29
Medals: 1
Лучший релиз за месяц (1)
  • Личное сообщение
  • ICQ

  • Похожие торренты
    Ответы
    Просмотры
    Последнее сообщение

Re: Дэдпул / Deadpool (2016) CamRip

Сообщение mirt » 04 мар 2016, 06:28

перевод дублированный. как определили, что дублированный? там слова понять нельзя, перевод то хоть на какой язык?
Аватара пользователя
Прохожий
Прохожий
 
Раздал: 35.31 ТБ
Скачал: 13.04 ТБ
Ратио: 3.046
Сообщения: 9
Зарегистрирован: 29 окт 2009, 07:33


Вернуться в Фильмы 2016 (новинки)

Кто сейчас на конференции

Зарегистрированные пользователи: sergey_tr, ЗУРБАГАН

Ресурс не предоставляет электронные версии произведений, а занимается лишь коллекционированием и каталогизацией ссылок, присылаемых и публикуемых на форуме нашими читателями. Если вы являетесь правообладателем какого-либо представленного материала и не желаете чтобы ссылка на него находилась в нашем каталоге, свяжитесь с нами и мы незамедлительно удалим её. Файлы для обмена на трекере предоставлены пользователями сайта, и администрация не несёт ответственности за их содержание. Просьба не заливать файлы, защищенные авторскими правами, а также файлы нелегального содержания!
cron