Помнить / Remember (2015) HDRip

Киноновинки, новинки кинопроката, горячие новинки

Модератор: Модераторы видео

  • Статистика раздачи
Размер: 1.22 ГБ   |  Зарегистрирован: 27 фев 2016, 16:49   |   .torrent скачан: 5 раз
Сидеров: 19  [ 0 байт/сек ]     Личеров: 0  [ 0 байт/сек ]  
Список файлов : Кто скачал : Раздают : Скачивают : Кто благодарил : История : Не раздающие : Запрашивали сидеров : Внешние трекеры 
  

Помнить / Remember (2015) HDRip

Сообщение Админ » 27 фев 2016, 16:49

Помнить / Remember (2015) HDRip

Производство: Канада, Германия
Жанр: Драма, Триллер

Режиссер: Атом Эгоян
Продюсер: Эри Лантос, Роберт Лантош, Аарон Барнетт
Актеры: Кристофер Пламмер, Дин Норрис, Мартин Ландау, Джеймс Кейд, Юрген Прохнов, Генри Черни, Бруно Ганц, Натали Крилл, Питер ДаКуна, Джанет Портер, София Уэллс, Дуан Мюррэй

Описание:
90-летний Зев, переживший Холокост, узнает, что охранник-нацист, виновный в гибели его семьи во время войны, благополучно живет в Америке под чужим именем. Зев отправляется туда вершить правосудие.


Дата мировой премьеры: 10 сентября 2015
Дата премьеры в России: 24 марта 2016, «Люксор»

Продолжительность: 01:34:22
Качество видео: HDRip
Перевод: Многоголосый закадровый, любительский
Озвучка / Автор перевода: Parovoz Production
Субтитры: Отсутствуют

Видео: Xvid, 720x400, ~1643 kbps
Аудио: MP3, 2 ch, 192 kbps, CBR
Код:
Код: Выделить всё
Общее
Полное имя                               : D:\KINO 3\ABCEICO\Pomnit`.RU.2015.avi
Формат                                   : AVI
Формат/Информация                        : Audio Video Interleave
Размер файла                             : 1,22 Гбайт
Продолжительность                        : 1 ч. 34 м.
Общий поток                              : 1845 Кбит/сек
Программа кодирования                    : VirtualDubMod 1.5.10.3 | [url=http://www.virtualdub-fr.org]www.virtualdub-fr.org[/url] || (build 2550/release)
Библиотека кодирования                   : VirtualDubMod build 2550/release

Видео
Идентификатор                            : 0
Формат                                   : MPEG-4 Visual
Профиль формата                          : Advanced Simple@L5
Параметр BVOP формата                    : 2
Параметр QPel формата                    : Нет
Параметр GMC формата                     : Без точки перехода
Параметр матрицы формата                 : Default (H.263)
Режим смешивания                         : Сжатый битовый поток
Идентификатор кодека                     : XVID
Идентификатор кодека/Подсказка           : XviD
Продолжительность                        : 1 ч. 34 м.
Битрейт                                  : 1643 Кбит/сек
Ширина                                   : 720 пикселей
Высота                                   : 400 пикселей
Соотношение сторон                       : 16:9
Частота кадров                           : 23,976 кадра/сек
Цветовое пространство                    : YUV
Субдискретизация насыщенности            : 4:2:0
Битовая глубина                          : 8 бит
Тип развёртки                            : Прогрессивная
Метод сжатия                             : С потерями
Бит/(Пиксели*Кадры)                      : 0.238
Размер потока                            : 1,08 Гбайт (89%)
Библиотека кодирования                   : XviD 66

Аудио
Идентификатор                            : 1
Формат                                   : MPEG Audio
Версия формата                           : Version 1
Профиль формата                          : Layer 3
Режим                                    : Joint stereo
Расширение режима                        : MS Stereo
Идентификатор кодека                     : 55
Идентификатор кодека/Подсказка           : MP3
Продолжительность                        : 1 ч. 34 м.
Вид битрейта                             : Постоянный
Битрейт                                  : 192 Кбит/сек
Каналы                                   : 2 канала
Частота                                  : 48,0 КГц
Метод сжатия                             : С потерями
Размер потока                            : 130 Мбайт (10%)
Выравнивание                             : Соединение по промежуткам
Продолжительность промежутка             : 42  мс. (1,00 видеокадр)
Время предзагрузки промежутка            : 504  мс.

Скриншоты:



Время раздачи: С 09:00 до 23:30 до 5 скачавших (до появления первых 3-5 скачавших)
   
Торрент: Зарегистрирован [27 фев 2016, 16:49] Скачать торрент
Скачать торрент
О MediaGet
[ Размер 12.92 КБ / Просмотров 57 ]

Статус:
 
Приватный: Нет (DHT включён)
Размер: 1.22 ГБ (1 305 565 184 байт)
   
Аватара пользователя

Администратор
Администратор
 
Раздал: 2.3 ПБ
Скачал: 1.01 ПБ
Ратио: 2.270
Сообщения: 2997
Зарегистрирован: 07 май 2010, 17:29
Medals: 1
Лучший релиз за месяц (1)
  • Личное сообщение
  • ICQ

  • Похожие торренты
    Ответы
    Просмотры
    Последнее сообщение

Вернуться в Фильмы 2016 (новинки)

Кто сейчас на конференции

Зарегистрированные пользователи: MOBILE666, Nolimit

Ресурс не предоставляет электронные версии произведений, а занимается лишь коллекционированием и каталогизацией ссылок, присылаемых и публикуемых на форуме нашими читателями. Если вы являетесь правообладателем какого-либо представленного материала и не желаете чтобы ссылка на него находилась в нашем каталоге, свяжитесь с нами и мы незамедлительно удалим её. Файлы для обмена на трекере предоставлены пользователями сайта, и администрация не несёт ответственности за их содержание. Просьба не заливать файлы, защищенные авторскими правами, а также файлы нелегального содержания!
cron