Запрет (2015) SATRip

Киноновинки, новинки кинопроката, горячие новинки

Модератор: Модераторы видео

  • Статистика раздачи
Размер: 1.2 ГБ   |  Зарегистрирован: 26 фев 2016, 21:33   |   .torrent скачан: 5 раз
Сидеров: 257  [ 0 байт/сек ]     Личеров: 7  [ 0 байт/сек ]  
Список файлов : Кто скачал : Раздают : Скачивают : Кто благодарил : История : Не раздающие : Запрашивали сидеров : Внешние трекеры 
  

Запрет (2015) SATRip

Сообщение Админ » 26 фев 2016, 21:33

Запрет (2015) SATRip

Производство: Россия
Жанр: Драма, Военный

Режиссер: Алексей Козлов
Актеры: Наталья Ткаченко, Анна Молчанова, Джулиано Ди Капуа, Сергей Яценюк, Георгий Тараторкин, Валентина Панина, Сергей Жукович, Мария Рочева, Ирина Обрезкова, Дмитрий Кочкин, Денис Моисеев, Руслан Барабанов, Дмитрий Чудин, Вячеслав Отливанов, Сергей Евдокимов, Сергей Завьялов, Фабио Пирола, Даниил Кокин, Полина Чичканова

Описание:
История любви итальянского офицера Джакомо и православной послушницы Лоры. Идёт война, и на любовь наложен запрет. Джакомо — итальянец, и он — враг! Так рассуждает обожженный войной, непримиримый к врагу русский капитан Георгий, от любви к которому тает сердце монахини Пелагеи. Их будет четверо, загнанных войной на маленький каменный остров в Ладоге. Они все здесь, на этом камне, как у Бога на ладошке… Кому из них суждено погибнуть? Кому победить и остаться в живых?


Дата премьеры в России: 10 июля 2015

Продолжительность: 01:28:18
Качество видео: SATRip
Перевод: Не требуется, русский
Вид субтитров: Вшитые, форсированные
Язык субтитров: Русский

Видео: Xvid, 720x400, ~1805 kbps
Аудио: MP3, 2 ch, 128 kbps, CBR
Код:
Код: Выделить всё
Общее
Полное имя                               : D:\KINO 3\Зapret.avi
Формат                                   : AVI
Формат/Информация                        : Audio Video Interleave
Профиль формата                          : OpenDML
Размер файла                             : 1,20 Гбайт
Продолжительность                        : 1 ч. 28 м.
Общий поток                              : 1949 Кбит/сек
Программа кодирования                    : Lavf56.25.101

Видео
Идентификатор                            : 0
Формат                                   : MPEG-4 Visual
Профиль формата                          : Advanced Simple@L5
Параметр BVOP формата                    : Нет
Параметр QPel формата                    : Нет
Параметр GMC формата                     : Без точки перехода
Параметр матрицы формата                 : Default (MPEG)
Идентификатор кодека                     : XVID
Идентификатор кодека/Подсказка           : XviD
Продолжительность                        : 1 ч. 28 м.
Битрейт                                  : 1805 Кбит/сек
Ширина                                   : 720 пикселей
Высота                                   : 400 пикселей
Соотношение сторон                       : 16:9
Частота кадров                           : 25,000 кадров/сек
Цветовое пространство                    : YUV
Субдискретизация насыщенности            : 4:2:0
Битовая глубина                          : 8 бит
Тип развёртки                            : Прогрессивная
Метод сжатия                             : С потерями
Бит/(Пиксели*Кадры)                      : 0.251
Размер потока                            : 1,11 Гбайт (93%)
Библиотека кодирования                   : XviD 67

Аудио
Идентификатор                            : 1
Формат                                   : MPEG Audio
Версия формата                           : Version 1
Профиль формата                          : Layer 3
Режим                                    : Joint stereo
Расширение режима                        : MS Stereo
Идентификатор кодека                     : 55
Идентификатор кодека/Подсказка           : MP3
Продолжительность                        : 1 ч. 28 м.
Вид битрейта                             : Постоянный
Битрейт                                  : 128 Кбит/сек
Каналы                                   : 2 канала
Частота                                  : 48,0 КГц
Метод сжатия                             : С потерями
Размер потока                            : 80,8 Мбайт (7%)
Выравнивание                             : Соединение по промежуткам
Продолжительность промежутка             : 24  мс. (0,60 видеокадр)
Библиотека кодирования                   : LAME3.99.5
Этот фильм посмотрел на Киношоке, в присутствии его создателя - Алексея Козлова.

С чего же начать? Пожалуй, с хорошего. Понравилась природа холодной Ладоги. Она сделала свое дело — помогла создать определенную атмосферу. Понравился подбор актеров. И хорошо, что малоизвестных. Понравилась игра актеров. Может, не гениальная, но хорошая, добротная. Были неплохие режиссерские решения. Иногда. Иногда были откровенные провалы. Как, например, с личной историей капитана Георгия, которую он рассказывает, держа под прицелом итальянца. Оправдывает, так сказать, свою жестокость. Видимо, эта сцена должна была стать одной из самых сильных в фильме. Могла бы стать. Если бы ранее странный персонаж в двух словах ее уже не рассказал. И поблек от этого эффект. История, рассказанная второй раз… сами знаете, как воспринимается.

О чем же этот фильм? По форме о том, что заявлено в аннотации. По факту же о грязных, невежественных русских дикарях. И о светлых, добрых, красивых, благородных иностранцах, носителях «прекрасных европейских ценностей». Скажем честно — не случайно это у автора фильма получилось. Знал, что делал. Потому что режиссеру-сериальщику в большом кино ничего не светит. А хочется прорваться. Как? Есть проверенный рецепт. Сделай что-то, обливающее грязью Россию. Ну, или СССР. Русских в общем. Метод проверенный, неоднократно подтвержденный даже Нобелевскими премиями по литературе, не то что громкими призами на зарубежных кинофестивалях. Что и было сделано в фильме «Запрет».

Во всем эти итальянцы в лице Джакомо превосходят русских в лице Георгия. Даже в амурных делах. У Лоры с Джакомо все красиво, романтично, с цветами и высокопарными беседами. Любовь настоящая! У Георгия с Пелагеей же просто животное, грязное непонятно что, видимо, характерное для всех русских. А, уж в поступках, так и подавно. Европейский добрячок и русский изверг. Конечно, он не родился таким, война его таким сделала. Но, видать, как всегда с этими русскими все не как у людей.

Апогеем русофобии становится фраза Лоры (гражданки СССР, к слову): «Если в Италии все мужчины такие, то я полюблю эту страну»! Потому что здесь, на Родине, живет эта похотливая Лора явно среди скота мужского пола.

Когда фильм закончился, мне была интересна реакция зрителей. И она меня порадовала — ни одного хлопка автору, что, обычно, принято на фестивалях в присутствие создателя картины. Не угадал Козлов с аудиторией, не в той стране показал кино. Может, лет 15 назад, когда мы падали ниц перед всем западным, считая себя ущербными и вечно виноватыми, и у нас бы похлопали. Только Россия уже не та. А на Западе, да, такое прокатит. Там таких любят. Только одно мне интересно знать, почему Козлов покинул зал быстро, не дожидаясь, когда титры пройдут. Может, что-то понял.

Скриншоты:



Время раздачи: С 09:00 до 23:30 до 5 скачавших (до появления первых 3-5 скачавших)
   
Торрент: Зарегистрирован [26 фев 2016, 21:33] Скачать торрент
Скачать торрент
О MediaGet
[ Размер 12.76 КБ / Просмотров 50 ]

Статус:
 
Приватный: Нет (DHT включён)
Размер: 1.2 ГБ (1 290 669 512 байт)
   
Аватара пользователя

Администратор
Администратор
 
Раздал: 2.29 ПБ
Скачал: 1.01 ПБ
Ратио: 2.266
Сообщения: 2960
Зарегистрирован: 07 май 2010, 17:29
Medals: 1
Лучший релиз за месяц (1)
  • Личное сообщение
  • ICQ

  • Похожие торренты
    Ответы
    Просмотры
    Последнее сообщение

Вернуться в Фильмы 2016 (новинки)

Кто сейчас на конференции

Зарегистрированные пользователи: Starsnerus x 1

Ресурс не предоставляет электронные версии произведений, а занимается лишь коллекционированием и каталогизацией ссылок, присылаемых и публикуемых на форуме нашими читателями. Если вы являетесь правообладателем какого-либо представленного материала и не желаете чтобы ссылка на него находилась в нашем каталоге, свяжитесь с нами и мы незамедлительно удалим её. Файлы для обмена на трекере предоставлены пользователями сайта, и администрация не несёт ответственности за их содержание. Просьба не заливать файлы, защищенные авторскими правами, а также файлы нелегального содержания!
cron