Зачётный препод 2 / Fack ju Gohte 2 (2015) HDRip [Line]

Киноновинки, новинки кинопроката, горячие новинки

Модератор: Модераторы видео

Зачётный препод 2 / Fack ju Gohte 2 (2015) HDRip [Line]

Сообщение Админ » 26 фев 2016, 21:32

Зачётный препод 2 / Fack ju Gohte 2 (2015) HDRip

Производство: Германия, Constantin Film International, Constantin Film Produktion GmbH, Red Balloon Films
Жанр: Комедия

Режиссер: Бора Дагтекин
Продюсер: Бора Дагтекин, Лена Олбрич, Сьюзанн Функе
Актеры: Элиас ЭмБарек, Йелла Хаазе, Каролина Херфурт, Катя Риман, Макс фон Гробен, Гизем Эмре, Арам Арами, Анна-Лена Кленке, Лукас Райбер, Руна Грайнер

Описание:
Бывший грабитель, а ныне крутой препод в школе Гёте, Зеки Мюллер, обрел популярность среди учеников благодаря нетрадиционным методам преподавания. Не успел он заскучать, заполняя классные журналы и проверяя тетради, как его вовлекли в «войну школ»: для того, чтобы получить статус престижного учебного заведения, необходимо съездить с коррекционным классом старшеклассников в Таиланд, чтобы установить дружеские отношения с местной школой.

Вы, наверное, догадались, кому «повезло» стать сопровождающим! Пару Зеки составит очаровательная коллега Лиси. Кто кому задаст жару в этой по-настоящему «горячей» поездке, полной соблазнов — большой вопрос…


Возраст: 16+ (зрителям, достигшим 16 лет)
Дата мировой премьеры: 10 сентября 2015
Дата премьеры в России: 28 января 2016, «Люксор»

Продолжительность: 01:55:24
Качество видео: HDRip
Перевод: Дублированный (чистый звук)
Реклама: Отсутствует

Видео: Xvid, 720x304, ~1600 kb/s
Аудио: AC3, 2 ch, 192 Кбит/с
Код:
Код: Выделить всё
General
Complete name                  : D:\Downloading\Zachjotnyj.prepod.2.2015.D.HDRip.avi
Format                         : AVI
Format/Info                    : Audio Video Interleave
File size                      : 1.45 GiB
Duration                       : 1h 55mn
Overall bit rate               : 1 802 Kbps
Writing application            : VirtualDubMod 1.5.10.3 | (build 2550/release)
Writing library                : VirtualDubMod build 2550/release

Video
ID                             : 0
Format                         : MPEG-4 Visual
Format profile                 : Advanced Simple@L5
Format settings, BVOP          : 1
Format settings, QPel          : No
Format settings, GMC           : No warppoints
Format settings, Matrix        : Custom
Codec ID                       : XVID
Codec ID/Hint                  : XviD
Duration                       : 1h 55mn
Bit rate                       : 1 600 Kbps
Width                          : 720 pixels
Height                         : 304 pixels
Display aspect ratio           : 2.35:1
Frame rate                     : 24.000 fps
Color space                    : YUV
Chroma subsampling             : 4:2:0
Bit depth                      : 8 bits
Scan type                      : Progressive
Compression mode               : Lossy
Bits/(Pixel*Frame)             : 0.305
Stream size                    : 1.29 GiB (89%)
Writing library                : XviD 73

Audio
ID                             : 1
Format                         : AC-3
Format/Info                    : Audio Coding 3
Mode extension                 : CM (complete main)
Format settings, Endianness    : Big
Codec ID                       : 2000
Duration                       : 1h 55mn
Bit rate mode                  : Constant
Bit rate                       : 192 Kbps
Channel(s)                     : 2 channels
Channel positions              : Front: L R
Sampling rate                  : 48.0 KHz
Frame rate                     : 31.250 fps (1536 spf)
Compression mode               : Lossy
Stream size                    : 158 MiB (11%)
Alignment                      : Split accross interleaves
Interleave, duration           : 42 ms (1.00 video frame)
Interleave, preload duration   : 500 ms

Скриншоты:



Время раздачи: 24/7 (до появления первых 3-5 скачавших)
Аватара пользователя

Администратор
Администратор
 
Раздал: 2.29 ПБ
Скачал: 1.01 ПБ
Ратио: 2.266
Сообщения: 2960
Зарегистрирован: 07 май 2010, 17:29
Medals: 1
Лучший релиз за месяц (1)
  • Личное сообщение
  • ICQ

  • Похожие темы
    Ответы
    Просмотры
    Последнее сообщение

Вернуться в Фильмы 2016 (новинки)

Кто сейчас на конференции

Зарегистрированные пользователи: Starsnerus x 1

Ресурс не предоставляет электронные версии произведений, а занимается лишь коллекционированием и каталогизацией ссылок, присылаемых и публикуемых на форуме нашими читателями. Если вы являетесь правообладателем какого-либо представленного материала и не желаете чтобы ссылка на него находилась в нашем каталоге, свяжитесь с нами и мы незамедлительно удалим её. Файлы для обмена на трекере предоставлены пользователями сайта, и администрация не несёт ответственности за их содержание. Просьба не заливать файлы, защищенные авторскими правами, а также файлы нелегального содержания!