Стив Джобс / Steve Jobs (2015) HDRip [Line]

Киноновинки, новинки кинопроката, горячие новинки

Модератор: Модераторы видео

  • Статистика раздачи
Размер: 2.18 ГБ   |  Зарегистрирован: 26 фев 2016, 21:28   |   .torrent скачан: 13 раз
Сидеров: 611  [ 0 байт/сек ]     Личеров: 43  [ 0 байт/сек ]  
Список файлов : Кто скачал : Раздают : Скачивают : Кто благодарил : История : Не раздающие : Запрашивали сидеров : Внешние трекеры 
  

Стив Джобс / Steve Jobs (2015) HDRip [Line]

Сообщение Админ » 26 фев 2016, 21:28

Стив Джобс / Steve Jobs (2015) HDRip

Производство: США, Великобритания
Жанр: Драма, биография

Режиссер: Дэнни Бойл
Актеры: Майкл Фассбендер, Сет Роген, Джефф Дэниелс, Кейт Уинслет, Майкл Стулбарг, Кэтрин Уотерстон, Перла Аней-Жардине, Рипли Собо, Макензи Мосс, Сара Снук.

Описание:
Фильм «Стив Джобс» - биографическая лента об одном из пионеров эры IT-технологий. Картина разделена на три условные части, каждая из которых рассказывает о важном для Джобса периоде, связанном с выпуском ключевых продуктов его компании. В 1984 году Стив вместе с командой разработчиков презентовал Макинтош. 1988 год - Apple теряла долю на рынке, испытывала сложности с инновациями и была вынуждена обратиться к бывшему создателю за помощью, попутно купив NEXT, где он создал компьютер, достойный внимания. И, наконец, в 1998 году Джобс готовится показать миру iMac. С этого периода вся история Стива делится на до и после. А Apple становится компанией, опережающей время.


Дата мировой премьеры: 5 сентября 2015
Дата российской премьеры: 1 января 2016

Продолжительность: 02:02:32
Качество видео: HDRip
Перевод: Дублированный (Чистый звук)
Субтитры: Отсутствуют
Реклама: Присутствуют вставки голосовой и текстовой рекламы.

Видео: MPEG4, XviD, 720x304 (2.35:1), 23.976 fps, 1 955 Kbps (0.373 bit/pixel)
Аудио #1: AC-3, 48.0 KHz, 2 ch, 192 Kbps, CBR
Аудио #2: AC-3, 48.0 KHz, 6 ch, 384 Kbps, CBR
Код:
Код: Выделить всё
Общее
Полное имя                               : C:\NNM\Стив Джобс\Stiv Dzhobs 2015 HDRip.avi
Формат                                   : AVI
Формат/Информация                        : Audio Video Interleave
Профиль формата                          : OpenDML
Размер файла                             : 2,18 Гбайт
Продолжительность                        : 2 ч. 2 м.
Общий поток                              : 2549 Кбит/сек
Программа кодирования                    : VirtualDubMod 1.5.10.3 | [url=http://www.virtualdub-fr.org]www.virtualdub-fr.org[/url] || (build 2550/release)
Библиотека кодирования                   : VirtualDubMod build 2550/release

Видео
Идентификатор                            : 0
Формат                                   : MPEG-4 Visual
Профиль формата                          : Advanced Simple@L5
Параметр BVOP формата                    : 2
Параметр QPel формата                    : Нет
Параметр GMC формата                     : Без точки перехода
Параметр матрицы формата                 : Default (MPEG)
Идентификатор кодека                     : XVID
Идентификатор кодека/Подсказка           : XviD
Продолжительность                        : 2 ч. 2 м.
Битрейт                                  : 1955 Кбит/сек
Ширина                                   : 720 пикселей
Высота                                   : 304 пикселя
Соотношение сторон                       : 2,35:1
Частота кадров                           : 23,976 кадра/сек
Цветовое пространство                    : YUV
Субдискретизация насыщенности            : 4:2:0
Битовая глубина                          : 8 бит
Тип развёртки                            : Прогрессивная
Метод сжатия                             : С потерями
Бит/(Пиксели*Кадры)                      : 0.373
Размер потока                            : 1,67 Гбайт (77%)
Библиотека кодирования                   : XviD 1.2.1 (UTC 2008-12-04)

Аудио #1
Идентификатор                            : 1
Формат                                   : AC-3
Формат/Информация                        : Audio Coding 3
Расширение режима                        : CM (complete main)
Идентификатор кодека                     : 2000
Продолжительность                        : 2 ч. 2 м.
Вид битрейта                             : Постоянный
Битрейт                                  : 192 Кбит/сек
Каналы                                   : 2 канала
Расположение каналов                     : Front: L R
Частота                                  : 48,0 КГц
Битовая глубина                          : 16 бит
Метод сжатия                             : С потерями
Размер потока                            : 168 Мбайт (8%)
Выравнивание                             : Разделение по промежуткам
Продолжительность промежутка             : 42  мс. (1,00 видеокадр)
Время предзагрузки промежутка            : 500  мс.

Аудио #2
Идентификатор                            : 2
Формат                                   : AC-3
Формат/Информация                        : Audio Coding 3
Расширение режима                        : CM (complete main)
Идентификатор кодека                     : 2000
Продолжительность                        : 2 ч. 2 м.
Вид битрейта                             : Постоянный
Битрейт                                  : 384 Кбит/сек
Каналы                                   : 6 каналов
Расположение каналов                     : Front: L C R, Side: L R, LFE
Частота                                  : 48,0 КГц
Битовая глубина                          : 16 бит
Метод сжатия                             : С потерями
Размер потока                            : 337 Мбайт (15%)
Выравнивание                             : Разделение по промежуткам
Продолжительность промежутка             : 42  мс. (1,00 видеокадр)
Время предзагрузки промежутка            : 500  мс.

Скриншоты:

Время раздачи:
Круглосуточно до 10 скачавших
   
Торрент: Зарегистрирован [26 фев 2016, 21:28] Скачать торрент
Скачать торрент
О MediaGet
[ Размер 11.59 КБ / Просмотров 92 ]

Статус:
 
Приватный: Нет (DHT включён)
Размер: 2.18 ГБ (2 343 047 168 байт)
   
Аватара пользователя

Администратор
Администратор
 
Раздал: 2.3 ПБ
Скачал: 1.01 ПБ
Ратио: 2.270
Сообщения: 2997
Зарегистрирован: 07 май 2010, 17:29
Medals: 1
Лучший релиз за месяц (1)
  • Личное сообщение
  • ICQ

  • Похожие торренты
    Ответы
    Просмотры
    Последнее сообщение

Вернуться в Фильмы 2016 (новинки)

Кто сейчас на конференции

Зарегистрированные пользователи: Dom_777, kilinbel, leomartin, Nolimit, sergej-asd

cron
Ресурс не предоставляет электронные версии произведений, а занимается лишь коллекционированием и каталогизацией ссылок, присылаемых и публикуемых на форуме нашими читателями. Если вы являетесь правообладателем какого-либо представленного материала и не желаете чтобы ссылка на него находилась в нашем каталоге, свяжитесь с нами и мы незамедлительно удалим её. Файлы для обмена на трекере предоставлены пользователями сайта, и администрация не несёт ответственности за их содержание. Просьба не заливать файлы, защищенные авторскими правами, а также файлы нелегального содержания!
cron