Француз / Un Francais (2015) HDRip [FR]

Киноновинки, новинки кинопроката, горячие новинки

Модератор: Модераторы видео

  • Статистика раздачи
Размер: 1.39 ГБ   |  Зарегистрирован: 22 фев 2016, 04:57   |   .torrent скачан: 1 раз
Сидеров: 23  [ 0 байт/сек ]     Личеров: 0  [ 0 байт/сек ]  
Список файлов : Кто скачал : Раздают : Скачивают : Кто благодарил : История : Не раздающие : Запрашивали сидеров : Внешние трекеры 
  

Француз / Un Francais (2015) HDRip [FR]

Сообщение Админ » 22 фев 2016, 04:57

Француз / Un Francais (2015) HDRip [FR]

Производство: Франция, Fin Août Productions, Mars Films, France 3 Cinéma
Жанр: Драма

Режиссер: Дьястем
Актеры: Элбан Ленуар, Поль Ами, Джинн Роза, Патрик Пино, Рено Леба, Бландин Пелиссье, Алекс Мартин

Описание:
Марко — настоящий скинхед. Вместе со своими приятелями, Брагетом, Гран-Ги и Марвеном, он дубасит арабов и расклеивает плакаты ультраправых. Это продолжается до тех пор, пока он не начинает чувствовать, что вся эта ненависть улетучилась. Но как избавиться от жестокости, злости и глупости, которая в нас живет? Это пример пути человека, который был подонком, но захотел исправиться.



Дата мировой премьеры: 10 июня 2015

Продолжительность: 01:38:43
Качество видео: HDRip
Перевод: Отсутствует
Язык озвучки: Французский

Видео: Xvid, 720x304, ~1700 Kbps
Аудио: AC3, 6 ch, 384 Kbps, CBR
Семпл: Скачать
Код:
Код: Выделить всё
Полное имя                               : French.Blood.2016.HDRip.XviD.AC3-EVO.avi
Формат                                   : AVI
Формат/Информация                        : Audio Video Interleave
Размер файла                             : 1,39 Гбайт
Продолжительность                        : 1 ч. 38 м.
Общий поток                              : 2049 Кбит/сек
Библиотека кодирования                   : VirtualDub build 32593/release

Видео
Идентификатор                            : 0
Формат                                   : MPEG-4 Visual
Профиль формата                          : Advanced Simple@L5
Параметр BVOP формата                    : 2
Параметр QPel формата                    : Нет
Параметр GMC формата                     : Без точки перехода
Параметр матрицы формата                 : Default (H.263)
Режим смешивания                         : Сжатый битовый поток
Идентификатор кодека                     : XVID
Идентификатор кодека/Подсказка           : XviD
Продолжительность                        : 1 ч. 38 м.
Битрейт                                  : 1656 Кбит/сек
Ширина                                   : 720 пикселей
Высота                                   : 304 пикселя
Соотношение сторон                       : 2,35:1
Частота кадров                           : 24,000 кадра/сек
Цветовое пространство                    : YUV
Субдискретизация насыщенности            : 4:2:0
Битовая глубина                          : 8 бит
Тип развёртки                            : Прогрессивная
Метод сжатия                             : С потерями
Бит/(Пиксели*Кадры)                      : 0.315
Размер потока                            : 1,12 Гбайт (81%)
Библиотека кодирования                   : XviD 66

Аудио
Идентификатор                            : 1
Формат                                   : AC-3
Формат/Информация                        : Audio Coding 3
Расширение режима                        : CM (complete main)
Параметр Endianness формата              : Big
Идентификатор кодека                     : 2000
Продолжительность                        : 1 ч. 38 м.
Вид битрейта                             : Постоянный
Битрейт                                  : 384 Кбит/сек
Каналы                                   : 6 каналов
Расположение каналов                     : Front: L C R, Side: L R, LFE
Частота                                  : 48,0 КГц
Частота кадров                           : 31,250 кадров/сек (1536 spf)
Метод сжатия                             : С потерями
Размер потока                            : 266 Мбайт (19%)
Выравнивание                             : Соединение по промежуткам
Продолжительность промежутка             : 42  мс. (1,00 видеокадр)
Время предзагрузки промежутка            : 512  мс.

Скриншоты:



Время раздачи: 24/7 (круглосуточно)
   
Торрент: Зарегистрирован [22 фев 2016, 04:57] Скачать торрент
Скачать торрент
О MediaGet
[ Размер 14.67 КБ / Просмотров 60 ]

Статус:
 
Приватный: Нет (DHT включён)
Размер: 1.39 ГБ (1 490 076 082 байт)
   
Аватара пользователя

Администратор
Администратор
 
Раздал: 2.29 ПБ
Скачал: 1.01 ПБ
Ратио: 2.266
Сообщения: 2960
Зарегистрирован: 07 май 2010, 17:29
Medals: 1
Лучший релиз за месяц (1)
  • Личное сообщение
  • ICQ

  • Похожие торренты
    Ответы
    Просмотры
    Последнее сообщение

Вернуться в Фильмы 2016 (новинки)

Кто сейчас на конференции

Зарегистрированные пользователи: Starsnerus x 1

Ресурс не предоставляет электронные версии произведений, а занимается лишь коллекционированием и каталогизацией ссылок, присылаемых и публикуемых на форуме нашими читателями. Если вы являетесь правообладателем какого-либо представленного материала и не желаете чтобы ссылка на него находилась в нашем каталоге, свяжитесь с нами и мы незамедлительно удалим её. Файлы для обмена на трекере предоставлены пользователями сайта, и администрация не несёт ответственности за их содержание. Просьба не заливать файлы, защищенные авторскими правами, а также файлы нелегального содержания!
cron