Переломный момент / The Gamechangers (2015) WEBRip [VO]

Киноновинки, новинки кинопроката, горячие новинки

Модератор: Модераторы видео

  • Статистика раздачи
Размер: 1.46 ГБ   |  Зарегистрирован: 22 фев 2016, 04:55   |   .torrent скачан: 3 раз
Сидеров: 262  [ 0 байт/сек ]     Личеров: 2  [ 0 байт/сек ]  
Список файлов : Кто скачал : Раздают : Скачивают : Кто благодарил : История : Не раздающие : Запрашивали сидеров : Внешние трекеры 
  

Переломный момент / The Gamechangers (2015) WEBRip [VO]

Сообщение Админ » 22 фев 2016, 04:55

Переломный момент / The Gamechangers (2015) WEBRip

Производство: Великобритания, British Broadcasting Corporation (BBC Scotland)
Жанр: Драма, биография

Режиссер: Оуэн Харрис
Продюсер: Джим Спенсер, Дайян Битти
Актеры: Билл Пэкстон, Дэниэл Рэдклифф, Джозеф Демпси, Райан Гейдж, Алекс МакГрегор, Ник Борэйни, Джей Бенедикт, Деметри Горицас, Лекс Кинг, Шеннон Эсра

Описание:
Фильм рассказывает о юристе из Майами Джеке Томпсоне, который всеми силами стремился добиться запрета видеоигры Grand Theft Auto, но в итоге в 2008 году лишился адвокатской лицензии за недопустимое поведение.


Дата мировой премьеры: 15 сентября 2015

Продолжительность: 01:28:42
Качество видео: WEBRip
Перевод: Одноголосый закадровый, любительский (Lord32x Studio)
Субтитры: Отсутствуют

Видео: XviD, 720x304, ~2085 Кбит/сек
Аудио: AC-3, 2 ch , 192 Кбит/сек
Код:
Код: Выделить всё
Общее
Полное имя                               : Переломный момент (2015)WEBRip.avi
Формат                                   : AVI
Формат/Информация                        : Audio Video Interleave
Размер файла                             : 1,46 Гбайт
Продолжительность                        : 1 ч. 28 м.
Общий поток                              : 2361 Кбит/сек
Программа кодирования                    : VirtualDubMod 1.5.10.3 | [url=http://www.virtualdub-fr.org]www.virtualdub-fr.org[/url] || (build 2550/release)
Библиотека кодирования                   : VirtualDubMod build 2550/release

Видео
Идентификатор                            : 0
Формат                                   : MPEG-4 Visual
Профиль формата                          : Advanced Simple@L5
Параметр BVOP формата                    : 1
Параметр QPel формата                    : Нет
Параметр GMC формата                     : Без точки перехода
Параметр матрицы формата                 : Default (H.263)
Идентификатор кодека                     : XVID
Идентификатор кодека/Подсказка           : XviD
Продолжительность                        : 1 ч. 28 м.
Продолжительность оригинала              : 45 м.
Битрейт                                  : 2085 Кбит/сек
Ширина                                   : 720 пикселей
Высота                                   : 304 пикселя
Соотношение сторон                       : 2,35:1
Частота кадров                           : 25,000 кадров/сек
Цветовое пространство                    : YUV
Субдискретизация насыщенности            : 4:2:0
Битовая глубина                          : 8 бит
Тип развёртки                            : Прогрессивная
Метод сжатия                             : С потерями
Бит/(Пиксели*Кадры)                      : 0.381
Размер потока                            : 671 Мбайт (45%)
Библиотека кодирования                   : XviD 1.2.1 (UTC 2008-12-04)

Аудио
Идентификатор                            : 1
Формат                                   : AC-3
Формат/Информация                        : Audio Coding 3
Расширение режима                        : CM (complete main)
Параметр Endianness формата              : Big
Идентификатор кодека                     : 2000
Продолжительность                        : 1 ч. 28 м.
Продолжительность оригинала              : 45 м.
Вид битрейта                             : Постоянный
Битрейт                                  : 192 Кбит/сек
Каналы                                   : 2 канала
Расположение каналов                     : Front: L R
Частота                                  : 48,0 КГц
Частота кадров                           : 31,250 кадров/сек (1536 spf)
Метод сжатия                             : С потерями
Размер потока                            : 61,8 Мбайт (4%)
Выравнивание                             : Разделение по промежуткам
Продолжительность промежутка             : 40  мс. (1,00 видеокадр)
Время предзагрузки промежутка            : 500  мс.

Скриншоты:



Время раздачи:
24/7. До первых 10 скачавших
   
Торрент: Зарегистрирован [22 фев 2016, 04:55] Скачать торрент
Скачать торрент
О MediaGet
[ Размер 15.46 КБ / Просмотров 54 ]

Статус:
 
Приватный: Нет (DHT включён)
Размер: 1.46 ГБ (1 570 385 920 байт)
   
Аватара пользователя

Администратор
Администратор
 
Раздал: 2.29 ПБ
Скачал: 1.01 ПБ
Ратио: 2.266
Сообщения: 2967
Зарегистрирован: 07 май 2010, 17:29
Medals: 1
Лучший релиз за месяц (1)
  • Личное сообщение
  • ICQ

  • Похожие торренты
    Ответы
    Просмотры
    Последнее сообщение

Вернуться в Фильмы 2016 (новинки)

Кто сейчас на конференции

Зарегистрированные пользователи: Dimkinzx, EAst, kabarda07, kilinbel, Nolimit, Starsnerus x 1, viRUSik

Ресурс не предоставляет электронные версии произведений, а занимается лишь коллекционированием и каталогизацией ссылок, присылаемых и публикуемых на форуме нашими читателями. Если вы являетесь правообладателем какого-либо представленного материала и не желаете чтобы ссылка на него находилась в нашем каталоге, свяжитесь с нами и мы незамедлительно удалим её. Файлы для обмена на трекере предоставлены пользователями сайта, и администрация не несёт ответственности за их содержание. Просьба не заливать файлы, защищенные авторскими правами, а также файлы нелегального содержания!
cron