Давайте втроём / A trois on y va (2015) WEBRip [VO]

Киноновинки, новинки кинопроката, горячие новинки

Модератор: Модераторы видео

  • Статистика раздачи
Размер: 1.32 ГБ   |  Зарегистрирован: 22 фев 2016, 04:54   |   .torrent скачан: 3 раз
Сидеров: 115  [ 0 байт/сек ]     Личеров: 8  [ 0 байт/сек ]  
Список файлов : Кто скачал : Раздают : Скачивают : Кто благодарил : История : Не раздающие : Запрашивали сидеров : Внешние трекеры 
  

Давайте втроём / A trois on y va (2015) WEBRip [VO]

Сообщение Админ » 22 фев 2016, 04:54

Давайте втроём / A trois on y va (2015) WEBRip

Производство: Франция, Бельгия
Жанр: Комедия

Режиссер: Жером Боннел
Актеры: Анаис Демустье, Феликс Моати, Софи Вербек, Патрик д’Асумсао, Оливье Брош, Лорэ Кэлами, Hannelore Cayre, Клер Маньен, Каролин Баер

Описание:
Молодые влюблённые Шарлотт и Миша только что купили дом в окрестностях Лилля, где собираются предаваться любви. Но с некоторого момента Шарлотта начала изменять Миша с Мелоди… Ничего не подозревающий Миша всё же чувствует себя до некоторой степени покинутым и в свою очередь изменяет Шарлотт, и тоже с Мелоди! Для Мелоди это настоящий кошмар. Ей дарят свою любовь сразу два человека, она со своей стороны тоже неравнодушна к обоим и должна хранить сразу две тайны…



Продолжительность: 01:26:28
Качество видео: WEBRip
Перевод: Одноголосый закадровый, любительский

Видео: Xvid, 720x400, ~1987 kbps
Аудио: AC3, 2 ch, 192 kbps, CBR
Семпл: Скачать
Код:
Код: Выделить всё
Общее
Полное имя                               : D:\FILMЬl\JR\Davaite.V.Troem.avi
Формат                                   : AVI
Формат/Информация                        : Audio Video Interleave
Размер файла                             : 1,32 Гбайт
Продолжительность                        : 1 ч. 26 м.
Общий поток                              : 2188 Кбит/сек
Программа кодирования                    : VirtualDubModRus 1.5.10.2 (build 2542/release)
Библиотека кодирования                   : VirtualDubMod build 2542/release

Видео
Идентификатор                            : 0
Формат                                   : MPEG-4 Visual
Профиль формата                          : Advanced Simple@L5
Параметр BVOP формата                    : 1
Параметр QPel формата                    : Нет
Параметр GMC формата                     : Без точки перехода
Параметр матрицы формата                 : Default (MPEG)
Идентификатор кодека                     : XVID
Идентификатор кодека/Подсказка           : XviD
Продолжительность                        : 1 ч. 26 м.
Битрейт                                  : 1987 Кбит/сек
Ширина                                   : 720 пикселей
Высота                                   : 400 пикселей
Соотношение сторон                       : 16:9
Соотношение сторон в оригинале           : 16:9
Частота кадров                           : 23,976 кадра/сек
Цветовое пространство                    : YUV
Субдискретизация насыщенности            : 4:2:0
Битовая глубина                          : 8 бит
Тип развёртки                            : Прогрессивная
Метод сжатия                             : С потерями
Бит/(Пиксели*Кадры)                      : 0.288
Размер потока                            : 1,20 Гбайт (91%)
Библиотека кодирования                   : XviD 65

Аудио
Идентификатор                            : 1
Формат                                   : AC-3
Формат/Информация                        : Audio Coding 3
Расширение режима                        : CM (complete main)
Параметр Endianness формата              : Big
Идентификатор кодека                     : 2000
Продолжительность                        : 1 ч. 26 м.
Вид битрейта                             : Постоянный
Битрейт                                  : 192 Кбит/сек
Каналы                                   : 2 канала
Расположение каналов                     : Front: L R
Частота                                  : 48,0 КГц
Метод сжатия                             : С потерями
Размер потока                            : 119 Мбайт (9%)
Выравнивание                             : Разделение по промежуткам
Продолжительность промежутка             : 42  мс. (1,00 видеокадр)
Время предзагрузки промежутка            : 500  мс.

Скриншоты:



Время раздачи: C 09:00 до 23:30 до 5 скачавших (до появления первых 3-5 скачавших)
   
Торрент: Зарегистрирован [22 фев 2016, 04:54] Скачать торрент
Скачать торрент
О MediaGet
[ Размер 14.01 КБ / Просмотров 66 ]

Статус:
 
Приватный: Нет (DHT включён)
Размер: 1.32 ГБ (1 419 345 920 байт)
   
Аватара пользователя

Администратор
Администратор
 
Раздал: 2.3 ПБ
Скачал: 1.01 ПБ
Ратио: 2.268
Сообщения: 2977
Зарегистрирован: 07 май 2010, 17:29
Medals: 1
Лучший релиз за месяц (1)
  • Личное сообщение
  • ICQ

  • Похожие торренты
    Ответы
    Просмотры
    Последнее сообщение

Вернуться в Фильмы 2016 (новинки)

Кто сейчас на конференции

Зарегистрированные пользователи: sergey_tr, ЗУРБАГАН

Ресурс не предоставляет электронные версии произведений, а занимается лишь коллекционированием и каталогизацией ссылок, присылаемых и публикуемых на форуме нашими читателями. Если вы являетесь правообладателем какого-либо представленного материала и не желаете чтобы ссылка на него находилась в нашем каталоге, свяжитесь с нами и мы незамедлительно удалим её. Файлы для обмена на трекере предоставлены пользователями сайта, и администрация не несёт ответственности за их содержание. Просьба не заливать файлы, защищенные авторскими правами, а также файлы нелегального содержания!
cron