Суфражистка / Suffragette (2015) HDRip [Line]

Киноновинки, новинки кинопроката, горячие новинки

Модератор: Модераторы видео

  • Статистика раздачи
Размер: 2.05 ГБ   |  Зарегистрирован: 21 фев 2016, 05:47   |   .torrent скачан: 3 раз
Сидеров: 343  [ 0 байт/сек ]     Личеров: 21  [ 0 байт/сек ]  
Список файлов : Кто скачал : Раздают : Скачивают : Кто благодарил : История : Не раздающие : Запрашивали сидеров : Внешние трекеры 
  

Суфражистка / Suffragette (2015) HDRip [Line]

Сообщение Админ » 21 фев 2016, 05:47

Суфражистка / Suffragette (2015) HDRip

Производство: Великобритания / Film4, Ingenious Media, Path, Ruby Films
Жанр: Драма, Биография, История

Режиссер: Сара Гаврон
Актеры: Кэри Маллиган, Хелена Бонем Картер, Брендан Глисон, Энн-Мэри Дафф, Мэрил Стрип, Грэйс Стоттор, Джофф Белл, Аманда Лоуренс, Шелли Лонгуорт, Адам Майкл Додд, Бен Уишоу, Сара Финиган, Дрю Эдвардс, Лоррэйн Стэнли, Ромола Гарай, Адам Нагаитис, Финбар Линч, Сэмюэл Уэст, Ник Хендрикс, Клайв Вуд

Описание:
Фильм посвящен движению суфражисток (борьба за предоставление женщинам избирательных прав), зародившемуся в Великобритании в конце 19 века.


Дата мировой премьеры: 4 сентября 2015

Продолжительность: 01:46:34
Качество видео: HDRip
Перевод: Дублированный (Чистый звук)
Субтитры: отсутствуют
Реклама: Присутствуют голосовые вставки рекламы.

Видео: Xvid, 720x304, ~1962 Kbps
Аудио: AC3, 2 ch, 384 kbps, CBR | Русский (Чистый звук)
Аудио: AC3, 6 ch, 384 kbps, CBR | Английский
Код:
Код: Выделить всё
Формат : AVI
Формат/Информация : Audio Video Interleave
Профиль формата : OpenDML
Размер файла : 2,05 Гбайт
Продолжительность : 1 ч. 46 м.
Общий поток : 2748 Кбит/сек
Программа кодирования : VirtualDubMod 1.5.10.3 | [url=http://www.virtualdub-fr.org]www.virtualdub-fr.org[/url] || (build 2550/release)
Библиотека кодирования : VirtualDubMod build 2550/release

Видео
Идентификатор : 0
Формат : MPEG-4 Visual
Профиль формата : Advanced Simple@L5
Параметр BVOP формата : 2
Параметр QPel формата : Нет
Параметр GMC формата : Без точки перехода
Параметр матрицы формата : Default (MPEG)
Идентификатор кодека : XVID
Идентификатор кодека/Подсказка : XviD
Продолжительность : 1 ч. 46 м.
Битрейт : 1962 Кбит/сек
Ширина : 720 пикселей
Высота : 304 пикселя
Соотношение сторон : 2,35:1
Частота кадров : 23,976 кадра/сек
Цветовое пространство : YUV
Субдискретизация насыщенности : 4:2:0
Битовая глубина : 8 бит
Тип развёртки : Прогрессивная
Метод сжатия : С потерями
Бит/(Пиксели*Кадры) : 0.374
Размер потока : 1,47 Гбайт (71%)
Библиотека кодирования : XviD 1.2.1 (UTC 2008-12-04)

Аудио #1
Идентификатор : 1
Формат : AC-3
Формат/Информация : Audio Coding 3
Расширение режима : CM (complete main)
Параметр Endianness формата : Big
Идентификатор кодека : 2000
Продолжительность : 1 ч. 46 м.
Вид битрейта : Постоянный
Битрейт : 384 Кбит/сек
Каналы : 2 канала
Расположение каналов : Front: L R
Частота : 48,0 КГц
Метод сжатия : С потерями
Размер потока : 294 Мбайт (14%)
Выравнивание : Разделение по промежуткам
Продолжительность промежутка : 42 мс. (1,00 видеокадр)
Время предзагрузки промежутка : 500 мс.

Аудио #2
Идентификатор : 2
Формат : AC-3
Формат/Информация : Audio Coding 3
Расширение режима : CM (complete main)
Параметр Endianness формата : Big
Идентификатор кодека : 2000
Продолжительность : 1 ч. 46 м.
Вид битрейта : Постоянный
Битрейт : 384 Кбит/сек
Каналы : 6 каналов
Расположение каналов : Front: L C R, Side: L R, LFE
Частота : 48,0 КГц
Метод сжатия : С потерями
Размер потока : 294 Мбайт (14%)
Выравнивание : Разделение по промежуткам
Продолжительность промежутка : 42 мс. (1,00 видеокадр)
Время предзагрузки промежутка : 500 мс.

Скриншоты:



Время раздачи: По мере возможности..(до появления первых 3-5 скачавших)
   
Торрент: Зарегистрирован [21 фев 2016, 05:47] Скачать торрент
Скачать торрент
О MediaGet
[ Размер 11.07 КБ / Просмотров 52 ]

Статус:
 
Приватный: Нет (DHT включён)
Размер: 2.05 ГБ (2 203 914 240 байт)
   
Аватара пользователя

Администратор
Администратор
 
Раздал: 2.3 ПБ
Скачал: 1.01 ПБ
Ратио: 2.270
Сообщения: 2997
Зарегистрирован: 07 май 2010, 17:29
Medals: 1
Лучший релиз за месяц (1)
  • Личное сообщение
  • ICQ

  • Похожие торренты
    Ответы
    Просмотры
    Последнее сообщение

Вернуться в Фильмы 2016 (новинки)

Кто сейчас на конференции

Зарегистрированные пользователи: MOBILE666, Nolimit

Ресурс не предоставляет электронные версии произведений, а занимается лишь коллекционированием и каталогизацией ссылок, присылаемых и публикуемых на форуме нашими читателями. Если вы являетесь правообладателем какого-либо представленного материала и не желаете чтобы ссылка на него находилась в нашем каталоге, свяжитесь с нами и мы незамедлительно удалим её. Файлы для обмена на трекере предоставлены пользователями сайта, и администрация не несёт ответственности за их содержание. Просьба не заливать файлы, защищенные авторскими правами, а также файлы нелегального содержания!
cron