Лихорадка / Cabin Fever (2016) WEB-DL [H.264/720p-LQ] [VO]

Киноновинки, новинки кинопроката, горячие новинки

Модератор: Модераторы видео

  • Статистика раздачи
Размер: 3.17 ГБ   |  Зарегистрирован: 21 фев 2016, 05:46   |   .torrent скачан: 4 раз
Сидеров: 539  [ 63.46 КБ/сек ]     Личеров: 40  [ 0 байт/сек ]  
Список файлов : Кто скачал : Раздают : Скачивают : Кто благодарил : История : Не раздающие : Запрашивали сидеров : Внешние трекеры 
  

Лихорадка / Cabin Fever (2016) WEB-DL [H.264/720p-LQ] [VO]

Сообщение Админ » 21 фев 2016, 05:46

Лихорадка / Cabin Fever (2016) WEB-DL

Производство: США, Contend, Armory Films, Pelican Point Media
Жанр: Ужасы

Режиссер: Трэвис Заривны.
Актеры: Гейдж Голайтли, Мэттью Даддарио, Надин Крокер, Дастин Ингрэм, Сэмюэл Дэвис, Рэнди Шульман, Луиз Линтон, Элай Рот, Тереза Дечер, Лаура Кенни, Джордж Гриффит, Тед Пфайфер, Ричард Дж. Борон.

Описание:
История о группе из пяти выпускников, которые арендуют удаленный домик в лесу и в результате становятся жертвами ужасного вируса…


Дата мировой премьеры: 12 февраля 2016

Продолжительность: 01:38:23
Качество видео: WEB-DL
Перевод: Одноголосый закадровый, любительский
Озвучка / Автор перевода: Хихикающий доктор
Язык субтитров: Английский
Вид субтитров: Вшитые отключаемые
Реклама: В начале и конце присутствует голосовая реклама.

Видео: AVC/H.264, 1280x532, ~3944 Kbps
Аудио 1: МР3, 2 ch, 192 Кбит/с - русский
Аудио 2: АС3, 6 ch, 384 Кбит/с - английский
Код:
Код: Выделить всё
бщее
Уникальный идентификатор                 : 198402583605481181504088674703419179806 (0x9542F29B382535B38AF07EBBC2DD031E)
Полное имя                               : E:\MMMM\Cabin.Fever.2016.720p.WEB-DL.mkv
Формат                                   : Matroska
Версия формата                           : Version 4 / Version 2
Размер файла                             : 3,17 Гбайт
Продолжительность                        : 1 ч. 38 м.
Общий поток                              : 4611 Кбит/сек
Название фильма                          : Cabin.Fever.2016
Дата кодирования                         : UTC 2016-02-20 09:03:12
Программа кодирования                    : mkvmerge v6.9.1 ('Blue Panther') 64bit built on Apr 18 2014 18:23:38
Библиотека кодирования                   : libebml v1.3.0 + libmatroska v1.4.1
Обложка                                  : Yes
Attachments                              : cover_land.jpg / small_cover.jpg / small_cover_land.jpg / cover.jpg

Видео
Идентификатор                            : 1
Формат                                   : AVC
Формат/Информация                        : Advanced Video Codec
Профиль формата                          :
Параметр CABAC формата                   : Нет
Параметр ReFrames формата                : 2 кадра
Идентификатор кодека                     : V_MPEG4/ISO/AVC
Продолжительность                        : 1 ч. 38 м.
Битрейт                                  : 3944 Кбит/сек
Ширина                                   : 1280 пикселей
Высота                                   : 532 пикселя
Соотношение сторон                       : 2,40:1
Режим частоты кадров                     : Постоянный
Частота кадров                           : 23,976 кадра/сек
Цветовое пространство                    : YUV
Субдискретизация насыщенности            : 4:2:0
Битовая глубина                          : 8 бит
Тип развёртки                            : Прогрессивная
Бит/(Пиксели*Кадры)                      : 0.242
Размер потока                            : 2,71 Гбайт (86%)
Заголовок                                : Cabin.Fever.2016
Язык                                     : English
Default                                  : Да
Forced                                   : Нет
Цветовой диапазон                        : Limited
Основные цвета                           : BT.709
Характеристики трансфера                 : BT.709
Коэффициенты матрицы                     : BT.709

Аудио #1
Идентификатор                            : 2
Формат                                   : MPEG Audio
Версия формата                           : Version 1
Профиль формата                          : Layer 3
Идентификатор кодека                     : A_MPEG/L3
Идентификатор кодека/Подсказка           : MP3
Продолжительность                        : 1 ч. 38 м.
Вид битрейта                             : Постоянный
Битрейт                                  : 192 Кбит/сек
Каналы                                   : 2 канала
Частота                                  : 44,1 КГц
Метод сжатия                             : С потерями
Размер потока                            : 135 Мбайт (4%)
Заголовок                                : Xixidoktor
Язык                                     : Russian
Default                                  : Да
Forced                                   : Нет

Аудио #2
Идентификатор                            : 3
Формат                                   : AC-3
Формат/Информация                        : Audio Coding 3
Расширение режима                        : CM (complete main)
Параметр Endianness формата              : Big
Идентификатор кодека                     : A_AC3
Продолжительность                        : 1 ч. 38 м.
Вид битрейта                             : Постоянный
Битрейт                                  : 384 Кбит/сек
Каналы                                   : 6 каналов
Расположение каналов                     : Front: L C R, Side: L R, LFE
Частота                                  : 48,0 КГц
Частота кадров                           : 31,250 кадров/сек (1536 spf)
Метод сжатия                             : С потерями
Размер потока                            : 270 Мбайт (8%)
Заголовок                                : original
Язык                                     : English
Default                                  : Нет
Forced                                   : Нет

Текст
Идентификатор                            : 4
Формат                                   : UTF-8
Идентификатор кодека                     : S_TEXT/UTF8
Идентификатор кодека/Информация          : UTF-8 Plain Text
Язык                                     : English
Default                                  : Нет
Forced                                   : Нет

Меню
00:00:00.000                             : en:1 / en:1
00:11:06.000                             : en:2 / en:2
00:20:34.000                             : en:3 / en:3
00:31:30.000                             : en:4 / en:4
00:41:11.000                             : en:5 / en:5
00:53:47.000                             : en:6 / en:6
01:04:09.000                             : en:7 / en:7
01:15:12.000                             : en:8 / en:8
01:33:11.000                             : en:9 / en:9

Скриншоты:


Время раздачи: с 8:00 до 22:00 (до появления первых 3-5 скачавших)
   
Торрент: Зарегистрирован [21 фев 2016, 05:46] Скачать торрент
Скачать торрент
О MediaGet
[ Размер 16.67 КБ / Просмотров 60 ]

Статус:
 
Приватный: Нет (DHT включён)
Размер: 3.17 ГБ (3 403 187 078 байт)
   
Аватара пользователя

Администратор
Администратор
 
Раздал: 2.29 ПБ
Скачал: 1.01 ПБ
Ратио: 2.266
Сообщения: 2960
Зарегистрирован: 07 май 2010, 17:29
Medals: 1
Лучший релиз за месяц (1)
  • Личное сообщение
  • ICQ

Вернуться в Фильмы 2016 (новинки)

Кто сейчас на конференции

Зарегистрированные пользователи: Starsnerus x 1

Ресурс не предоставляет электронные версии произведений, а занимается лишь коллекционированием и каталогизацией ссылок, присылаемых и публикуемых на форуме нашими читателями. Если вы являетесь правообладателем какого-либо представленного материала и не желаете чтобы ссылка на него находилась в нашем каталоге, свяжитесь с нами и мы незамедлительно удалим её. Файлы для обмена на трекере предоставлены пользователями сайта, и администрация не несёт ответственности за их содержание. Просьба не заливать файлы, защищенные авторскими правами, а также файлы нелегального содержания!
cron