Дипан / Dheepan (2015) HDRip [Line]

Киноновинки, новинки кинопроката, горячие новинки

Модератор: Модераторы видео

  • Статистика раздачи
Размер: 2.06 ГБ   |  Зарегистрирован: 16 фев 2016, 02:04   |   .torrent скачан: 12 раз
Сидеров: 111  [ 0 байт/сек ]     Личеров: 8  [ 0 байт/сек ]  
Список файлов : Кто скачал : Раздают : Скачивают : Кто благодарил : История : Не раздающие : Запрашивали сидеров : Внешние трекеры 
  

Дипан / Dheepan (2015) HDRip [Line]

Сообщение Админ » 16 фев 2016, 02:04

Дипан / Dheepan (2015) HDRip

Производство: Франция / A Plus Image 5, Canal+, Cofinova 11
Жанр: Драма, Криминал

Режиссер: Жак Одиар
Продюсер: Паскаль Кочето, Жак Одиар
Актеры: Джесутасан Антонитасан, Калиеасвари Сринивасан, Клодин Винаситамбу, Венсан Ротье, Фаузи Бенсаиди, Марк Зинга, Басс Дем, Франк Фалис

Описание:
боевик «Тамильских тигров» бежит из Шри-Ланки после конца гражданской войны. Ради получения убежища во Франции он выдает незнакомую женщину с ребенком за свою семью. Трое беглецов поселяются в предместье Парижа и постепенно сближаются, особенно перед лицом жестокости иммигрантских кварталов…


Дата мировой премьеры: 21 мая 2015
Дата премьеры в России: 3 декабря 2015, «Артхаус»

Продолжительность: 01:54:27
Качество видео: HDRip
Перевод: Многоголосый закадровый, профессиональный (Line)
Субтитры: отсутствуют
Реклама: Внимание! Присутствуют голосовые и текстовые вставки рекламы.

Видео: Xvid, 720x304, ~1968 Kbps
Аудио: AC3, 2 ch, 192 kbps, CBR | Русский (Line)
Аудио: AC3, 6 ch, 384 kbps, CBR | Французкий
Семпл: Скачать
Код:
Код: Выделить всё
Формат : AVI
Формат/Информация : Audio Video Interleave
Профиль формата : OpenDML
Размер файла : 2,06 Гбайт
Продолжительность : 1 ч. 54 м.
Общий поток : 2562 Кбит/сек
Программа кодирования : VirtualDubMod 1.5.10.3 |  (build 2550/release)
Библиотека кодирования : VirtualDubMod build 2550/release

Видео
Идентификатор : 0
Формат : MPEG-4 Visual
Профиль формата : Advanced Simple@L5
Параметр BVOP формата : 2
Параметр QPel формата : Нет
Параметр GMC формата : Без точки перехода
Параметр матрицы формата : Default (MPEG)
Идентификатор кодека : XVID
Идентификатор кодека/Подсказка : XviD
Продолжительность : 1 ч. 54 м.
Битрейт : 1968 Кбит/сек
Ширина : 720 пикселей
Высота : 304 пикселя
Соотношение сторон : 2,35:1
Частота кадров : 24,000 кадра/сек
Цветовое пространство : YUV
Субдискретизация насыщенности : 4:2:0
Битовая глубина : 8 бит
Тип развёртки : Прогрессивная
Метод сжатия : С потерями
Бит/(Пиксели*Кадры) : 0.375
Размер потока : 1,58 Гбайт (77%)
Библиотека кодирования : XviD 1.2.1 (UTC 2008-12-04)

Аудио #1
Идентификатор : 1
Формат : AC-3
Формат/Информация : Audio Coding 3
Расширение режима : CM (complete main)
Параметр Endianness формата : Big
Идентификатор кодека : 2000
Продолжительность : 1 ч. 54 м.
Вид битрейта : Постоянный
Битрейт : 192 Кбит/сек
Каналы : 2 канала
Расположение каналов : Front: L R
Частота : 48,0 КГц
Метод сжатия : С потерями
Размер потока : 158 Мбайт (7%)
Выравнивание : Разделение по промежуткам
Продолжительность промежутка : 42 мс. (1,00 видеокадр)
Время предзагрузки промежутка : 500 мс.

Аудио #2
Идентификатор : 2
Формат : AC-3
Формат/Информация : Audio Coding 3
Расширение режима : CM (complete main)
Параметр Endianness формата : Big
Идентификатор кодека : 2000
Продолжительность : 1 ч. 54 м.
Вид битрейта : Постоянный
Битрейт : 384 Кбит/сек
Каналы : 6 каналов
Расположение каналов : Front: L C R, Side: L R, LFE
Частота : 48,0 КГц
Метод сжатия : С потерями
Размер потока : 315 Мбайт (15%)
Выравнивание : Разделение по промежуткам
Продолжительность промежутка : 42 мс. (1,00 видеокадр)
Время предзагрузки промежутка : 500 мс.

Скриншоты:



Время раздачи: По мере возможности..(до первых скачавших) (до появления первых 3-5 скачавших)
   
Торрент: Зарегистрирован [16 фев 2016, 02:04] Скачать торрент
Скачать торрент
О MediaGet
[ Размер 11.06 КБ / Просмотров 115 ]

Статус:
 
Приватный: Нет (DHT включён)
Размер: 2.06 ГБ (2 206 648 320 байт)
   
Аватара пользователя

Администратор
Администратор
 
Раздал: 2.3 ПБ
Скачал: 1.01 ПБ
Ратио: 2.268
Сообщения: 2977
Зарегистрирован: 07 май 2010, 17:29
Medals: 1
Лучший релиз за месяц (1)
  • Личное сообщение
  • ICQ

  • Похожие торренты
    Ответы
    Просмотры
    Последнее сообщение

Вернуться в Фильмы 2016 (новинки)

Кто сейчас на конференции

Зарегистрированные пользователи: sergey_tr, ЗУРБАГАН

Ресурс не предоставляет электронные версии произведений, а занимается лишь коллекционированием и каталогизацией ссылок, присылаемых и публикуемых на форуме нашими читателями. Если вы являетесь правообладателем какого-либо представленного материала и не желаете чтобы ссылка на него находилась в нашем каталоге, свяжитесь с нами и мы незамедлительно удалим её. Файлы для обмена на трекере предоставлены пользователями сайта, и администрация не несёт ответственности за их содержание. Просьба не заливать файлы, защищенные авторскими правами, а также файлы нелегального содержания!
cron