Второе происхождение / Segon origen (2015) HDRip

Киноновинки, новинки кинопроката, горячие новинки

Модератор: Модераторы видео

  • Статистика раздачи
Размер: 1.41 ГБ   |  Зарегистрирован: 15 фев 2016, 01:01   |   .torrent скачан: 16 раз
Сидеров: 963  [ 0 байт/сек ]     Личеров: 21  [ 0 байт/сек ]  
Список файлов : Кто скачал : Раздают : Скачивают : Кто благодарил : История : Не раздающие : Запрашивали сидеров : Внешние трекеры 
  

Второе происхождение / Segon origen (2015) HDRip

Сообщение Админ » 15 фев 2016, 01:01

Второе происхождение / Segon origen (2015) HDRip

Производство: Испания, Великобритания / Antartida Produccions, Head Gear Films, Ipso Facto Productions, Premiere Picture
Жанр: Приключения, Ужасы, Фантастика

Режиссер: Карлес Порта
Продюсер: Кристин Алдерсон, Альберт Эспель, Джейсон Гарретт
Актеры: Рэйчел Херд-Вуд, Андрес Батиста, Серхи Лопес, Андро Креспо, Филип Херд-Вуд, Мариета Ороско, Альберт Прат

Описание:
Всё человечество исчезло. Лишь двое выживших, 20-летняя Альба и 10-летний Дидак, остались в разрушенном мире. Для того, чтобы выжить на этой планете, состоящей из руин, они пытаются всё начать с нуля. Вместе они должны будут не только спасти собственные жизни, но и исправить грехи всего человечества. Когда всё на свете кажется потерянным, любовь — это единственное Руководство по выживанию.


Дата мировой премьеры: 7 октября 2015

Продолжительность: 01:46:15
Качество видео: HDRip
Перевод: Двуголосый закадровый, любительский
Озвучка / Автор перевода: Galina Vasyukova & datynet
Вид субтитров: Отсутствуют

Видео: Xvid, 720x302, 1695 Кбит/с
Аудио: MP3, 2 ch, 192 Кбит/с
Код:
Код: Выделить всё
General
Complete name                            : D:\Фильмы\Segundo origen 2015.avi
Format                                   : AVI
Format/Info                              : Audio Video Interleave
File size                                : 1.41 GiB
Duration                                 : 1h 46mn
Overall bit rate                         : 1 896 Kbps
Writing application                      : VirtualDubMod 1.5.10.2 (build 2542/release)
Writing library                          : VirtualDub build 35576/release

Video
ID                                       : 0
Format                                   : MPEG-4 Visual
Format profile                           : Advanced Simple@L5
Format settings, BVOP                    : 2
Format settings, QPel                    : No
Format settings, GMC                     : No warppoints
Format settings, Matrix                  : Default (MPEG)
Codec ID                                 : XVID
Codec ID/Hint                            : XviD
Duration                                 : 1h 46mn
Bit rate                                 : 1 695 Kbps
Width                                    : 720 pixels
Height                                   : 302 pixels
Display aspect ratio                     : 2.40:1
Frame rate                               : 24.000 fps
Color space                              : YUV
Chroma subsampling                       : 4:2:0
Bit depth                                : 8 bits
Scan type                                : Progressive
Compression mode                         : Lossy
Bits/(Pixel*Frame)                       : 0.325
Stream size                              : 1.26 GiB (89%)
Writing library                          : XviD 64

Audio
ID                                       : 1
Format                                   : MPEG Audio
Format version                           : Version 1
Format profile                           : Layer 3
Codec ID                                 : 55
Codec ID/Hint                            : MP3
Duration                                 : 1h 46mn
Bit rate mode                            : Constant
Bit rate                                 : 192 Kbps
Channel(s)                               : 2 channels
Sampling rate                            : 48.0 KHz
Compression mode                         : Lossy
Stream size                              : 146 MiB (10%)
Alignment                                : Split accross interleaves
Interleave, duration                     : 42 ms (1.00 video frame)
Interleave, preload duration             : 500 ms

Скриншоты:



Время раздачи: 24/7 (круглосуточно)
   
Торрент: Зарегистрирован [15 фев 2016, 01:01] Скачать торрент
Скачать торрент
О MediaGet
[ Размер 14.88 КБ / Просмотров 167 ]

Статус:
 
Приватный: Нет (DHT включён)
Размер: 1.41 ГБ (1 510 850 478 байт)
   
Аватара пользователя

Администратор
Администратор
 
Раздал: 2.3 ПБ
Скачал: 1.01 ПБ
Ратио: 2.270
Сообщения: 2997
Зарегистрирован: 07 май 2010, 17:29
Medals: 1
Лучший релиз за месяц (1)
  • Личное сообщение
  • ICQ

  • Похожие торренты
    Ответы
    Просмотры
    Последнее сообщение

Вернуться в Фильмы 2016 (новинки)

Кто сейчас на конференции

Зарегистрированные пользователи: MOBILE666, Nolimit

Ресурс не предоставляет электронные версии произведений, а занимается лишь коллекционированием и каталогизацией ссылок, присылаемых и публикуемых на форуме нашими читателями. Если вы являетесь правообладателем какого-либо представленного материала и не желаете чтобы ссылка на него находилась в нашем каталоге, свяжитесь с нами и мы незамедлительно удалим её. Файлы для обмена на трекере предоставлены пользователями сайта, и администрация не несёт ответственности за их содержание. Просьба не заливать файлы, защищенные авторскими правами, а также файлы нелегального содержания!
cron