Нина навсегда / Nina Forever (2015) WEB-DLRip

Киноновинки, новинки кинопроката, горячие новинки

Модератор: Модераторы видео

  • Статистика раздачи
Размер: 1.45 ГБ   |  Зарегистрирован: 14 фев 2016, 03:06   |   .torrent скачан: 18 раз
Сидеров: 586  [ 0 байт/сек ]     Личеров: 84  [ 0 байт/сек ]  
Список файлов : Кто скачал : Раздают : Скачивают : Кто благодарил : История : Не раздающие : Запрашивали сидеров : Внешние трекеры 
  

Нина навсегда / Nina Forever (2015) WEB-DLRip

Сообщение Админ » 14 фев 2016, 03:06

Нина навсегда / Nina Forever (2015) WEB-DLRip

Производство: Великобритания / ARK Movie Fund, Brand and Deliver, Casualties Bureau, Charlie Productions, Jeva Films
Жанр: Ужасы, Мелодрама, Комедия

Режиссер: Бен Блейн, Крис Блейн
Актеры: Фиона, О’Шонесси, Эбигейл Хардингэм, Киэн Бэрри, Дэвид Тротон, Элизабет Элвин, Билл Холлэнд, Ли Николас Харрис, Шон Верей, Фелим Келли, Ричард Сэндлинг

Описание:
После того, как его подруга Нина погибает в автокатастрофе, Роб совершает неудачную попытку самоубийства. Чтобы преодолеть свое горе, он влюбляется в коллегу, Холли. Их отношения усложняются, когда Нина, не в силах найти покой в загробной жизни, возвращается к жизни, чтобы с сарказмом мучить их, когда они занимаются сексом.


Дата мировой премьеры: 22 февраля 2015
Дата премьеры в России: 25 февраля 2016, «Cinema Prestige»

Продолжительность: 01:38:44
Качество видео: WEB-DLRip
Перевод: Двуголосый закадровый, любительский
Озвучка / Автор перевода: den904 & DeadSno / Сергей Скворцов
Примечание: Присутствует ненормативная лексика
Субтитры: Отсутствуют
Реклама: Отсутствует

Видео: Xvid, 720x304, ~1702 kb/s
Аудио 1: AC3, 2 ch, 192 kb/s - Русский
Аудио 2: AC3, 2 ch, 192 kb/s - Английский
Семпл: Скачать
Код:
Код: Выделить всё
General
Complete name                  : D:\Downloading\Nina.Forever.2015.WEB-DLRip.avi
Format                         : AVI
Format/Info                    : Audio Video Interleave
File size                      : 1.45 GiB
Duration                       : 1h 38mn
Overall bit rate               : 2 100 Kbps
Writing application            : VirtualDubMod 1.5.10.3 | (build 2550/release)
Writing library                : VirtualDubMod build 2550/release

Video
ID                             : 0
Format                         : MPEG-4 Visual
Format profile                 : Advanced Simple@L5
Format settings, BVOP          : 1
Format settings, QPel          : No
Format settings, GMC           : No warppoints
Format settings, Matrix        : Custom
Codec ID                       : XVID
Codec ID/Hint                  : XviD
Duration                       : 1h 38mn
Bit rate                       : 1 702 Kbps
Width                          : 720 pixels
Height                         : 304 pixels
Display aspect ratio           : 2.35:1
Frame rate                     : 24.000 fps
Color space                    : YUV
Chroma subsampling             : 4:2:0
Bit depth                      : 8 bits
Scan type                      : Progressive
Compression mode               : Lossy
Bits/(Pixel*Frame)             : 0.324
Stream size                    : 1.17 GiB (81%)
Writing library                : XviD 73

Audio #1
ID                             : 1
Format                         : AC-3
Format/Info                    : Audio Coding 3
Mode extension                 : CM (complete main)
Format settings, Endianness    : Big
Codec ID                       : 2000
Duration                       : 1h 38mn
Bit rate mode                  : Constant
Bit rate                       : 192 Kbps
Channel(s)                     : 2 channels
Channel positions              : Front: L R
Sampling rate                  : 48.0 KHz
Frame rate                     : 31.250 fps (1536 spf)
Compression mode               : Lossy
Stream size                    : 136 MiB (9%)
Alignment                      : Split accross interleaves
Interleave, duration           : 42 ms (1.00 video frame)
Interleave, preload duration   : 500 ms

Audio #2
ID                             : 2
Format                         : AC-3
Format/Info                    : Audio Coding 3
Mode extension                 : CM (complete main)
Format settings, Endianness    : Big
Codec ID                       : 2000
Duration                       : 1h 38mn
Bit rate mode                  : Constant
Bit rate                       : 192 Kbps
Channel(s)                     : 2 channels
Channel positions              : Front: L R
Sampling rate                  : 48.0 KHz
Frame rate                     : 31.250 fps (1536 spf)
Compression mode               : Lossy
Stream size                    : 136 MiB (9%)
Alignment                      : Split accross interleaves
Interleave, duration           : 42 ms (1.00 video frame)
Interleave, preload duration   : 500 ms

Скриншоты:



Время раздачи: 24/7 (до появления первых 50 скачавших)
   
Торрент: Зарегистрирован [14 фев 2016, 03:06] Скачать торрент
Скачать торрент
О MediaGet
[ Размер 15.28 КБ / Просмотров 153 ]

Статус:
 
Приватный: Нет (DHT включён)
Размер: 1.45 ГБ (1 555 054 592 байт)
   
Аватара пользователя

Администратор
Администратор
 
Раздал: 2.29 ПБ
Скачал: 1.01 ПБ
Ратио: 2.266
Сообщения: 2967
Зарегистрирован: 07 май 2010, 17:29
Medals: 1
Лучший релиз за месяц (1)
  • Личное сообщение
  • ICQ

  • Похожие торренты
    Ответы
    Просмотры
    Последнее сообщение

Вернуться в Фильмы 2016 (новинки)

Кто сейчас на конференции

Зарегистрированные пользователи: Dimkinzx, EAst, kabarda07, kilinbel, Nolimit, Starsnerus x 1, viRUSik

Ресурс не предоставляет электронные версии произведений, а занимается лишь коллекционированием и каталогизацией ссылок, присылаемых и публикуемых на форуме нашими читателями. Если вы являетесь правообладателем какого-либо представленного материала и не желаете чтобы ссылка на него находилась в нашем каталоге, свяжитесь с нами и мы незамедлительно удалим её. Файлы для обмена на трекере предоставлены пользователями сайта, и администрация не несёт ответственности за их содержание. Просьба не заливать файлы, защищенные авторскими правами, а также файлы нелегального содержания!
cron