Холодный фронт (2015) WEB-DL [H.264/1080p-LQ]

Киноновинки, новинки кинопроката, горячие новинки

Модератор: Модераторы видео

  • Статистика раздачи
Размер: 3.06 ГБ   |  Зарегистрирован: 11 фев 2016, 18:40   |   .torrent скачан: 14 раз
Сидеров: 367  [ 0 байт/сек ]     Личеров: 61  [ 0 байт/сек ]  
Список файлов : Кто скачал : Раздают : Скачивают : Кто благодарил : История : Не раздающие : Запрашивали сидеров : Внешние трекеры 
  

Холодный фронт (2015) WEB-DL [H.264/1080p-LQ]

Сообщение Админ » 11 фев 2016, 18:40

Холодный фронт (2015) WEB-DL [H.264/1080p-LQ]

Производство: Россия, Франция
Жанр: Триллер, Мелодрама

Режиссер: Роман Волобуев
Актеры: Светлана Устинова, Даша Чаруша, Александр Молочников, Полина Аскери, Кристоф Ле Тессон, Татьяна Абраменко, Александра Боярская

Описание:
Давно разлюбившая друг друга пара — Саша, девушка из богатой семьи, и ее бойфренд Илья — проводят зимние каникулы в отрезанном от внешнего мира доме на берегу океана на севере Франции.
В канун Нового года происходит два вроде бы не связанных между собой события: недалеко от дома героев прибой выбрасывает на берег тушу неизвестного науке животного, а тем же вечером Илья встречает в окрестностях Машу — русскую девушку, которая якобы случайно сошла с поезда не на той станции и которой негде ночевать. С Машей явно что-то не так, но Илья и Саша, увлеченные выяснением отношений, сперва не замечают зловещих странностей в поведении незванной гостьи.


Дата премьеры в России: 14 января 2016, «Арена»

Продолжительность: 01:32:22
Качество видео: WEB-DL
Перевод: Не требуется, русский (iTunes)
Субтитры: Отсутствуют
Реклама: Присутствуют голосовые вставки

Видео: AVC/H.264, 1920x804, ~4350 kb/s
Аудио: AC3, 6 ch, 384 kb/s
Семпл: Скачать
Код:
Код: Выделить всё
General
Unique ID                      : 219501943439304913678348734105178318932 (0xA522895CC9F045D3AB2F74133FAFA854)
Complete name                  : D:\Downloading\X0L0DHyi.FP0HT.2015.O.WEB-DL.1080p.mkv
Format                         : Matroska
Format version                 : Version 4 / Version 2
File size                      : 3.06 GiB
Duration                       : 1h 32mn
Overall bit rate               : 4 736 Kbps
Encoded date                   : UTC 2016-02-10 20:40:33
Writing application            : mkvmerge v8.8.0 ('Wind at my back') 64bit
Writing library                : libebml v1.3.3 + libmatroska v1.4.4

Video
ID                             : 1
Format                         : AVC
Format/Info                    : Advanced Video Codec
Format profile                 : High@L4
Format settings, CABAC         : Yes
Format settings, ReFrames      : 5 frames
Codec ID                       : V_MPEG4/ISO/AVC
Duration                       : 1h 32mn
Bit rate                       : 4 350 Kbps
Width                          : 1 920 pixels
Height                         : 804 pixels
Display aspect ratio           : 2.40:1
Frame rate mode                : Constant
Frame rate                     : 24.000 fps
Color space                    : YUV
Chroma subsampling             : 4:2:0
Bit depth                      : 8 bits
Scan type                      : Progressive
Bits/(Pixel*Frame)             : 0.117
Stream size                    : 2.81 GiB (92%)
Language                       : English
Default                        : Yes
Forced                         : No
Color range                    : Limited
Color primaries                : BT.709
Transfer characteristics       : BT.709
Matrix coefficients            : BT.709

Audio
ID                             : 2
Format                         : AC-3
Format/Info                    : Audio Coding 3
Mode extension                 : CM (complete main)
Format settings, Endianness    : Big
Codec ID                       : A_AC3
Duration                       : 1h 32mn
Bit rate mode                  : Constant
Bit rate                       : 384 Kbps
Channel(s)                     : 6 channels
Channel positions              : Front: L C R, Side: L R, LFE
Sampling rate                  : 48.0 KHz
Frame rate                     : 31.250 fps (1536 spf)
Compression mode               : Lossy
Stream size                    : 254 MiB (8%)
Language                       : Russian
Default                        : Yes
Forced                         : No

Menu
00:00:00.000                   : en:Глава 1
00:05:36.000                   : en:Глава 2
00:11:04.958                   : en:Глава 3
00:16:24.083                   : en:Глава 4
00:21:52.416                   : en:Глава 5
00:27:51.249                   : en:Глава 6
00:33:01.624                   : en:Глава 7
00:40:47.290                   : en:Глава 8
00:46:02.290                   : en:Глава 9
00:52:00.081                   : en:Глава 10
00:57:57.164                   : en:Глава 11
01:03:23.997                   : en:Глава 12
01:10:01.205                   : en:Глава 13
01:15:47.705                   : en:Глава 14
01:21:10.663                   : en:Глава 15
01:28:03.038                   : en:Глава 16

Скриншоты:



Время раздачи: 24/7 (до появления первых 50 скачавших)
   
Торрент: Зарегистрирован [11 фев 2016, 18:40] Скачать торрент
Скачать торрент
О MediaGet
[ Размер 15.99 КБ / Просмотров 146 ]

Статус:
 
Приватный: Нет (DHT включён)
Размер: 3.06 ГБ (3 281 202 524 байт)
   
Аватара пользователя

Администратор
Администратор
 
Раздал: 2.3 ПБ
Скачал: 1.01 ПБ
Ратио: 2.268
Сообщения: 2977
Зарегистрирован: 07 май 2010, 17:29
Medals: 1
Лучший релиз за месяц (1)
  • Личное сообщение
  • ICQ

Вернуться в Фильмы 2016 (новинки)

Кто сейчас на конференции

Зарегистрированные пользователи: sergey_tr, ЗУРБАГАН

Ресурс не предоставляет электронные версии произведений, а занимается лишь коллекционированием и каталогизацией ссылок, присылаемых и публикуемых на форуме нашими читателями. Если вы являетесь правообладателем какого-либо представленного материала и не желаете чтобы ссылка на него находилась в нашем каталоге, свяжитесь с нами и мы незамедлительно удалим её. Файлы для обмена на трекере предоставлены пользователями сайта, и администрация не несёт ответственности за их содержание. Просьба не заливать файлы, защищенные авторскими правами, а также файлы нелегального содержания!
cron