Война / Krigen (2015) DVDRip [VO]

Киноновинки, новинки кинопроката, горячие новинки

Модератор: Модераторы видео

  • Статистика раздачи
Размер: 1.24 ГБ   |  Зарегистрирован: 11 фев 2016, 18:11   |   .torrent скачан: 18 раз
Сидеров: 611  [ 0 байт/сек ]     Личеров: 16  [ 0 байт/сек ]  
Список файлов : Кто скачал : Раздают : Скачивают : Кто благодарил : История : Не раздающие : Запрашивали сидеров : Внешние трекеры 
  

Война / Krigen (2015) DVDRip [VO]

Сообщение Админ » 11 фев 2016, 18:11

Война / Krigen (2015) DVDRip

Производство: Дания, AZ Celtic Films, Nordisk Film Production
Жанр: Драма, Военный

Режиссер: Тобиас Линдхольм
Актеры: Йохан Филип Асбек, Тува Новотны, Сёрен Маллинг, Дар Салим, Шарлотте Мунк

Описание:
Командир роты Клаус М. Педерсен и его люди размещены в афганской провинции. Тем временем в Дании жена Клауса Мария пытается вести обычную жизнь, когда ее муж на войне, а ее троим детям не хватает отца. Во время очередной миссии солдаты попадают в тяжелую перестрелку, и чтобы спасти своих людей, Клаус принимает решение, которое имеет серьезные последствия для него и для его семьи.


Дата мировой премьеры: 5 сентября 2015

Продолжительность: 01:50:12
Качество видео: DVDRip
Перевод: Одноголосый закадровый, любительский (Павел Морозов aka PashaUp)
Субтитры: Отсутствуют
Реклама: Отсутствует

Видео: Xvid, 704x384, ~1412 Кбит/с
Аудио: MP3, 2 ch, 192 Кбит/с
Семпл: Скачать
Код:
Код: Выделить всё
General
Complete name                  : D:\Downloading\Krigen(2015).avi
Format                         : AVI
Format/Info                    : Audio Video Interleave
File size                      : 1.24 GiB
Duration                       : 1h 50mn
Overall bit rate               : 1 614 Kbps
Writing application            : VirtualDubMod 1.5.10.2 (build 2540/release)
Writing library                : VirtualDubMod build 2540/release

Video
ID                             : 0
Format                         : xvid
Codec ID                       : xvid
Duration                       : 1h 50mn
Bit rate                       : 1 412 Kbps
Width                          : 704 pixels
Height                         : 384 pixels
Display aspect ratio           : 1.85:1
Frame rate                     : 25.000 fps
Bits/(Pixel*Frame)             : 0.209
Stream size                    : 1.09 GiB (87%)

Audio
ID                             : 1
Format                         : MPEG Audio
Format version                 : Version 1
Format profile                 : Layer 3
Mode                           : Joint stereo
Codec ID                       : 55
Codec ID/Hint                  : MP3
Duration                       : 1h 50mn
Bit rate mode                  : Constant
Bit rate                       : 192 Kbps
Channel(s)                     : 2 channels
Sampling rate                  : 48.0 KHz
Compression mode               : Lossy
Stream size                    : 151 MiB (12%)
Alignment                      : Aligned on interleaves
Interleave, duration           : 40 ms (1.00 video frame)
Interleave, preload duration   : 504 ms

Скриншоты:



Время раздачи: 24/7 (до 10 скачавших) (до появления первых 3-5 скачавших)
   
Торрент: Зарегистрирован [11 фев 2016, 18:11] Скачать торрент
Скачать торрент
О MediaGet
[ Размер 13.18 КБ / Просмотров 145 ]

Статус:
 
Приватный: Нет (DHT включён)
Размер: 1.24 ГБ (1 333 637 120 байт)
   
Аватара пользователя

Администратор
Администратор
 
Раздал: 2.3 ПБ
Скачал: 1.01 ПБ
Ратио: 2.270
Сообщения: 2997
Зарегистрирован: 07 май 2010, 17:29
Medals: 1
Лучший релиз за месяц (1)
  • Личное сообщение
  • ICQ

Вернуться в Фильмы 2016 (новинки)

Кто сейчас на конференции

Зарегистрированные пользователи: Dom_777, kilinbel, leomartin, Nolimit, sergej-asd

Ресурс не предоставляет электронные версии произведений, а занимается лишь коллекционированием и каталогизацией ссылок, присылаемых и публикуемых на форуме нашими читателями. Если вы являетесь правообладателем какого-либо представленного материала и не желаете чтобы ссылка на него находилась в нашем каталоге, свяжитесь с нами и мы незамедлительно удалим её. Файлы для обмена на трекере предоставлены пользователями сайта, и администрация не несёт ответственности за их содержание. Просьба не заливать файлы, защищенные авторскими правами, а также файлы нелегального содержания!
cron