Тайна в их глазах / Secret in Their Eyes (2015) BDRip [H.264/1080p] [Line]

Киноновинки, новинки кинопроката, горячие новинки

Модератор: Модераторы видео

  • Статистика раздачи
Размер: 8.24 ГБ   |  Зарегистрирован: 10 фев 2016, 19:42   |   .torrent скачан: 12 раз
Сидеров: 643  [ 0 байт/сек ]     Личеров: 58  [ 0 байт/сек ]  
Список файлов : Кто скачал : Раздают : Скачивают : Кто благодарил : История : Не раздающие : Запрашивали сидеров : Внешние трекеры 
  

Тайна в их глазах / Secret in Their Eyes (2015) BDRip [H.264/1080p] [Line]

Сообщение Админ » 10 фев 2016, 19:42

Тайна в их глазах / Secret in Their Eyes (2015) BDRip [H.264/1080p]

Производство: США
Жанр: Триллер, Детектив

Режиссер: Билли Рэй
Продюсер: Мэтт Джексон, Марк Джонсон, Мэтт Беренсон
Актеры: Чиветел Эджиофор, Николь Кидман, Джулия Робертс, Дин Норрис, Альфред Молина, Джо Коул, Майкл Келли, Зои Грэм, Патрик Дэвис, Эйлин Фогарти

Описание:
Привычное течение жизни дружной команды федералов нарушает страшная трагедия: жестоко убита дочь следователя Джесс… Доказательств недостаточно, и подозреваемого приходится отпустить. Но Рэй, напарник Джесс, безнадежно влюбленный в их начальницу, не оставляет попыток докопаться до истины. И вот спустя десятилетие появляется шанс раскрыть тайну гибели девушки. У правосудия, мести и любви нет сроков давности.


Дата мировой премьеры: 12 ноября 2015
Дата премьеры в России: 19 ноября 2015, «Централ Партнершип»

Релиз от: NNM-CLUB
Продолжительность: 01:51:23
Качество видео: BDRip
Перевод: Дублированный (Чистый звук)
Субтитры: Английский

Видео: AVC/H.264, 1920x800, ~ 8676 Kbps,
Аудио 1: AC3, 2 ch 384 kbps | Русский дубляж
Аудио 2: DTS, 6 ch 1509 kbps | Английский оригинал
Общее
Полное имя : \Тайна в их глазах_Secret in Their Eyes.2015.BDRip.1080p.NNM-CLUB.mkv
Формат : Matroska
Версия формата : Version 2
Размер файла : 8,24 Гбайт
Продолжительность : 1 ч. 51 м.
Общий поток : 10,6 Мбит/сек
Название фильма : Тайна в их глазах_Secret in Their Eyes.2015.BDRip.1080p.NNM-CLUB
Дата кодирования : UTC 2016-02-10 12:08:11
Программа кодирования : mkvmerge v7.7.0 ('Six Voices') 64bit built on Feb 28 2015 23:39:33
Библиотека кодирования : libebml v1.3.1 + libmatroska v1.4.2
DURATION : 01:51:39.702000000
NUMBER_OF_FRAMES : 628097
NUMBER_OF_BYTES : 1263731164
_STATISTICS_WRITING_APP : mkvmerge v8.3.0 ('Over the Horizon') 64bit
_STATISTICS_WRITING_DATE_UTC : 2016-02-09 21:02:10
_STATISTICS_TAGS : BPS DURATION NUMBER_OF_FRAMES NUMBER_OF_BYTES

Видео
Идентификатор : 1
Формат : AVC
Формат/Информация : Advanced Video Codec
Профиль формата :
Параметр CABAC формата : Да
Параметр ReFrames формата : 5 кадров
Идентификатор кодека : V_MPEG4/ISO/AVC
Продолжительность : 1 ч. 51 м.
Битрейт : 8676 Кбит/сек
Ширина : 1920 пикселей
Высота : 800 пикселей
Соотношение сторон : 2,40:1
Режим частоты кадров : Постоянный
Частота кадров : 23,976 кадра/сек
Цветовое пространство : YUV
Субдискретизация насыщенности : 4:2:0
Битовая глубина : 8 бит
Тип развёртки : Прогрессивная
Бит/(Пиксели*Кадры) : 0.236
Размер потока : 6,60 Гбайт (80%)
Заголовок : Тайна в их глазах_Secret in Their Eyes.2015.BDRip.1080p.NNM-CLUB
Библиотека кодирования : x264 core 148 r2665 a01e339
Настройки программы : cabac=1 / ref=5 / deblock=1:0:0 / analyse=0x3:0x133 / me=umh / subme=7 / psy=1 / psy_rd=1.00:0.00 / mixed_ref=1 / me_range=16 / chroma_me=1 / trellis=1 / 8x8dct=1 / cqm=0 / deadzone=21,11 / fast_pskip=0 / chroma_qp_offset=-2 / threads=24 / lookahead_threads=4 / sliced_threads=0 / nr=0 / decimate=1 / interlaced=0 / bluray_compat=0 / constrained_intra=0 / bframes=3 / b_pyramid=2 / b_adapt=1 / b_bias=0 / direct=1 / weightb=1 / open_gop=0 / weightp=2 / keyint=250 / keyint_min=23 / scenecut=40 / intra_refresh=0 / rc_lookahead=40 / rc=2pass / mbtree=1 / bitrate=8676 / ratetol=1.0 / qcomp=0.60 / qpmin=0 / qpmax=69 / qpstep=4 / cplxblur=20.0 / qblur=0.5 / ip_ratio=1.40 / aq=1:1.00
Язык : English
Default : Да
Forced : Нет
DURATION : 01:51:39.662000000
NUMBER_OF_FRAMES : 160631
NUMBER_OF_BYTES : 7264627175
_STATISTICS_WRITING_APP : mkvmerge v8.3.0 ('Over the Horizon') 64bit
_STATISTICS_WRITING_DATE_UTC : 2016-02-09 21:02:10
_STATISTICS_TAGS : BPS DURATION NUMBER_OF_FRAMES NUMBER_OF_BYTES

Аудио #1
Идентификатор : 2
Формат : AC-3
Формат/Информация : Audio Coding 3
Расширение режима : CM (complete main)
Параметр Endianness формата : Big
Идентификатор кодека : A_AC3
Продолжительность : 1 ч. 51 м.
Вид битрейта : Постоянный
Битрейт : 384 Кбит/сек
Каналы : 2 канала
Расположение каналов : Front: L R
Частота : 48,0 КГц
Метод сжатия : С потерями
Размер потока : 307 Мбайт (4%)
Заголовок : Дубляж (Чистый звук)
Язык : Russian
Default : Да
Forced : Нет

Аудио #2
Идентификатор : 3
Формат : DTS
Формат/Информация : Digital Theater Systems
Режим : 16
Параметр Endianness формата : Big
Идентификатор кодека : A_DTS
Продолжительность : 1 ч. 51 м.
Вид битрейта : Постоянный
Битрейт : 1509 Кбит/сек
Каналы : 6 каналов
Расположение каналов : Front: L C R, Side: L R, LFE
Частота : 48,0 КГц
Битовая глубина : 24 бит
Метод сжатия : С потерями
Размер потока : 1,18 Гбайт (14%)
Язык : English
Default : Нет
Forced : Нет

Текст
Идентификатор : 4
Формат : UTF-8
Идентификатор кодека : S_TEXT/UTF8
Идентификатор кодека/Информация : UTF-8 Plain Text
Язык : English
Default : Нет
Forced : Нет

Меню
00:00:00.000 : en:00:00:00.000
00:05:12.521 : en:00:05:12.521
00:10:52.235 : en:00:10:52.235
00:18:20.766 : en:00:18:20.766
00:22:41.402 : en:00:22:41.402
00:26:47.731 : en:00:26:47.731
00:34:30.860 : en:00:34:30.860
00:42:39.640 : en:00:42:39.640
00:46:31.789 : en:00:46:31.789
00:51:59.491 : en:00:51:59.491
00:56:16.498 : en:00:56:16.498
01:00:17.948 : en:01:00:17.948
01:05:47.902 : en:01:05:47.902
01:12:34.934 : en:01:12:34.934
01:17:29.645 : en:01:17:29.645
01:21:32.846 : en:01:21:32.846
01:25:23.118 : en:01:25:23.118
01:31:16.137 : en:01:31:16.137
01:37:19.500 : en:01:37:19.500
01:45:38.123 : en:01:45:38.123

Скриншоты:



Время раздачи: 24/7 до 10 скачавших
   
Торрент: Зарегистрирован [10 фев 2016, 19:42] За каждые 2 ГБ. аплоада (сидирования) этого торрента начисляется бонус: 0.001 Скачать торрент
Скачать торрент
О MediaGet
[ Размер 42.01 КБ / Просмотров 161 ]

Статус:
 
Приватный: Нет (DHT включён)
Размер: 8.24 ГБ (8 852 396 284 байт)
   
Аватара пользователя

Администратор
Администратор
 
Раздал: 2.3 ПБ
Скачал: 1.01 ПБ
Ратио: 2.268
Сообщения: 2977
Зарегистрирован: 07 май 2010, 17:29
Medals: 1
Лучший релиз за месяц (1)
  • Личное сообщение
  • ICQ

  • Похожие торренты
    Ответы
    Просмотры
    Последнее сообщение

Вернуться в Фильмы 2016 (новинки)

Кто сейчас на конференции

Зарегистрированные пользователи: sergey_tr, ЗУРБАГАН

Ресурс не предоставляет электронные версии произведений, а занимается лишь коллекционированием и каталогизацией ссылок, присылаемых и публикуемых на форуме нашими читателями. Если вы являетесь правообладателем какого-либо представленного материала и не желаете чтобы ссылка на него находилась в нашем каталоге, свяжитесь с нами и мы незамедлительно удалим её. Файлы для обмена на трекере предоставлены пользователями сайта, и администрация не несёт ответственности за их содержание. Просьба не заливать файлы, защищенные авторскими правами, а также файлы нелегального содержания!
cron