Под кожей / Unter der Haut (2015) WEB-DLRip

Киноновинки, новинки кинопроката, горячие новинки

Модератор: Модераторы видео

  • Статистика раздачи
Размер: 1.45 ГБ   |  Зарегистрирован: 10 фев 2016, 03:20   |   .torrent скачан: 12 раз
Сидеров: 40  [ 0 байт/сек ]     Личеров: 1  [ 0 байт/сек ]  
Список файлов : Кто скачал : Раздают : Скачивают : Кто благодарил : История : Не раздающие : Запрашивали сидеров : Внешние трекеры 
  

Под кожей / Unter der Haut (2015) WEB-DLRip

Сообщение Админ » 10 фев 2016, 03:20

Под кожей / Unter der Haut (2015) WEB-DLRip

Производство: Швейцария / Peacock Film AG, Schweizer Radio und Fernsehen (SRF), Schweizerische Radio- und Fernsehgesellschaft (SRG)
Жанр: Драма

Режиссер: Клаудия Лоренц
Продюсер: Elena Pedrazzoli
Актеры: Урсина Ларди, Доминик Янн, Рифка Фер, Антонио Буиль

Описание:
После восемнадцати лет брака, Алиса сталкивается с тем, что ее муж Фрэнк чувствует что все больше и больше его привлекают мужчины. Не только Фрэнк, но и она и их трое детей подвергаются необратимым изменениям.



Возраст: 18+
Дата мировой премьеры: 7 января 2015

Продолжительность: 01:30:52
Качество видео: WEB-DLRip
Перевод: Одноголосый закадровый, любительский
Язык субтитров: Английский
Вид субтитров: Отдельным файлом
Реклама: Отсутствует

Видео: Xvid, 720x400, ~1749 kb/s
Аудио 1: AC3, 2 ch, 192 Кb/s - Русский
Аудио 2: AC3, 6 ch, 320 Кb/s - Немецкий
Код:
Код: Выделить всё
General
Complete name                            : D:\Фильмы\Unter der Haut (2015) WEB-DLRip\Unter.der.Haut.2015.WEB-DLRip.avi
Format                                   : AVI
Format/Info                              : Audio Video Interleave
File size                                : 1.45 GiB
Duration                                 : 1h 30mn
Overall bit rate                         : 2 276 Kbps
Writing application                      : VirtualDubMod 1.5.10.3 (build 2550/release)
Writing library                          : VirtualDubMod build 2550/release

Video
ID                                       : 0
Format                                   : MPEG-4 Visual
Format profile                           : Advanced Simple@L5
Format settings, BVOP                    : 2
Format settings, QPel                    : No
Format settings, GMC                     : No warppoints
Format settings, Matrix                  : Default (H.263)
Muxing mode                              : Packed bitstream
Codec ID                                 : XVID
Codec ID/Hint                            : XviD
Duration                                 : 1h 30mn
Bit rate                                 : 1 750 Kbps
Width                                    : 720 pixels
Height                                   : 400 pixels
Display aspect ratio                     : 16:9
Frame rate                               : 25.000 fps
Color space                              : YUV
Chroma subsampling                       : 4:2:0
Bit depth                                : 8 bits
Scan type                                : Progressive
Compression mode                         : Lossy
Bits/(Pixel*Frame)                       : 0.243
Stream size                              : 1.11 GiB (77%)
Writing library                          : XviD 1.2.1 (UTC 2008-12-04)

Audio #1
ID                                       : 1
Format                                   : AC-3
Format/Info                              : Audio Coding 3
Mode extension                           : CM (complete main)
Format settings, Endianness              : Big
Codec ID                                 : 2000
Duration                                 : 1h 30mn
Bit rate mode                            : Constant
Bit rate                                 : 192 Kbps
Channel(s)                               : 2 channels
Channel positions                        : Front: L R
Sampling rate                            : 48.0 KHz
Frame rate                               : 31.250 fps (1536 spf)
Compression mode                         : Lossy
Stream size                              : 125 MiB (8%)
Alignment                                : Split accross interleaves
Interleave, duration                     : 40 ms (1.00 video frame)
Interleave, preload duration             : 500 ms

Audio #2
ID                                       : 2
Format                                   : AC-3
Format/Info                              : Audio Coding 3
Mode extension                           : CM (complete main)
Format settings, Endianness              : Big
Codec ID                                 : 2000
Duration                                 : 1h 30mn
Bit rate mode                            : Constant
Bit rate                                 : 320 Kbps
Channel(s)                               : 6 channels
Channel positions                        : Front: L C R, Side: L R, LFE
Sampling rate                            : 48.0 KHz
Frame rate                               : 31.250 fps (1536 spf)
Compression mode                         : Lossy
Stream size                              : 208 MiB (14%)
Alignment                                : Split accross interleaves
Interleave, duration                     : 40 ms (1.00 video frame)
Interleave, preload duration             : 500 ms

Скриншоты:



Время раздачи: 24/7 (круглосуточно)
   
Торрент: Зарегистрирован [10 фев 2016, 03:20] Скачать торрент
Скачать торрент
О MediaGet
[ Размер 15.33 КБ / Просмотров 138 ]

Статус:
 
Приватный: Нет (DHT включён)
Размер: 1.45 ГБ (1 551 710 243 байт)
   
Аватара пользователя

Администратор
Администратор
 
Раздал: 2.3 ПБ
Скачал: 1.01 ПБ
Ратио: 2.270
Сообщения: 2997
Зарегистрирован: 07 май 2010, 17:29
Medals: 1
Лучший релиз за месяц (1)
  • Личное сообщение
  • ICQ

  • Похожие торренты
    Ответы
    Просмотры
    Последнее сообщение

Вернуться в Фильмы 2016 (новинки)

Кто сейчас на конференции

Зарегистрированные пользователи: MOBILE666, Nolimit

Ресурс не предоставляет электронные версии произведений, а занимается лишь коллекционированием и каталогизацией ссылок, присылаемых и публикуемых на форуме нашими читателями. Если вы являетесь правообладателем какого-либо представленного материала и не желаете чтобы ссылка на него находилась в нашем каталоге, свяжитесь с нами и мы незамедлительно удалим её. Файлы для обмена на трекере предоставлены пользователями сайта, и администрация не несёт ответственности за их содержание. Просьба не заливать файлы, защищенные авторскими правами, а также файлы нелегального содержания!
cron