Артур и Мерлин / Arthur & Merlin (2015) WEB-DLRip

Киноновинки, новинки кинопроката, горячие новинки

Модератор: Модераторы видео

  • Статистика раздачи
Размер: 1.45 ГБ   |  Зарегистрирован: 09 фев 2016, 00:21   |   .torrent скачан: 19 раз
Сидеров: 703  [ 0 байт/сек ]     Личеров: 70  [ 0 байт/сек ]  
Список файлов : Кто скачал : Раздают : Скачивают : Кто благодарил : История : Не раздающие : Запрашивали сидеров : Внешние трекеры 
  

Артур и Мерлин / Arthur & Merlin (2015) WEB-DLRip

Сообщение Админ » 09 фев 2016, 00:21

Артур и Мерлин / Arthur & Merlin (2015) WEB-DLRip

Производство: Великобритания / Myrrdin
Жанр: Фэнтези

Режиссер: Марко Ван Белль
Продюсер: Роб Сперанса, Марко Ван Белль
Актеры: Кирк Баркер, Стефан Батлер, Найджел Кук, Адриан Буше, Дэвид Стерн, Николас Асбари, Эндрю Гроуз, Джозеф Аттэнборо, Джек Ригби, Элисон Харрис

Описание:
Молодой Кельтский воин и мастер-отшельник должны объединиться, чтобы победить злого друида.


Дата мировой премьеры: 11 апреля 2015

Продолжительность: 01:48:42
Качество видео: WEB-DLRip
Перевод: Двуголосый закадровый, любительский
Озвучка / Автор перевода: Parovoz Production
Вид субтитров: Отсутствуют
Реклама: Отсутствует

Видео: Xvid, 720x304, ~1710 kb/s
Аудио: AC3, 2 ch, 192 kb/s
Код:
Код: Выделить всё
General
Complete name                            : D:\Фильмы\ApTyp.u.MepJluH.2015.L2.WEB-DLRip.avi
Format                                   : AVI
Format/Info                              : Audio Video Interleave
File size                                : 1.45 GiB
Duration                                 : 1h 48mn
Overall bit rate                         : 1 912 Kbps
Writing application                      : VirtualDubMod 1.5.10.3 (build 2550/release)
Writing library                          : VirtualDubMod build 2550/release

Video
ID                                       : 0
Format                                   : MPEG-4 Visual
Format profile                           : Advanced Simple@L5
Format settings, BVOP                    : 1
Format settings, QPel                    : No
Format settings, GMC                     : No warppoints
Format settings, Matrix                  : Custom
Codec ID                                 : XVID
Codec ID/Hint                            : XviD
Duration                                 : 1h 48mn
Bit rate                                 : 1 710 Kbps
Width                                    : 720 pixels
Height                                   : 304 pixels
Display aspect ratio                     : 2.35:1
Frame rate                               : 25.000 fps
Color space                              : YUV
Chroma subsampling                       : 4:2:0
Bit depth                                : 8 bits
Scan type                                : Progressive
Compression mode                         : Lossy
Bits/(Pixel*Frame)                       : 0.313
Stream size                              : 1.30 GiB (89%)
Writing library                          : XviD 73

Audio
ID                                       : 1
Format                                   : AC-3
Format/Info                              : Audio Coding 3
Mode extension                           : CM (complete main)
Format settings, Endianness              : Big
Codec ID                                 : 2000
Duration                                 : 1h 48mn
Bit rate mode                            : Constant
Bit rate                                 : 192 Kbps
Channel(s)                               : 2 channels
Channel positions                        : Front: L R
Sampling rate                            : 48.0 KHz
Frame rate                               : 31.250 fps (1536 spf)
Compression mode                         : Lossy
Stream size                              : 149 MiB (10%)
Alignment                                : Split accross interleaves
Interleave, duration                     : 40 ms (1.00 video frame)
Interleave, preload duration             : 500 ms

Скриншоты:



Время раздачи: 24/7 (круглосуточно)
   
Торрент: Зарегистрирован [09 фев 2016, 00:21] Скачать торрент
Скачать торрент
О MediaGet
[ Размер 15.34 КБ / Просмотров 158 ]

Статус:
 
Приватный: Нет (DHT включён)
Размер: 1.45 ГБ (1 558 784 000 байт)
   
Аватара пользователя

Администратор
Администратор
 
Раздал: 2.3 ПБ
Скачал: 1.01 ПБ
Ратио: 2.270
Сообщения: 2997
Зарегистрирован: 07 май 2010, 17:29
Medals: 1
Лучший релиз за месяц (1)
  • Личное сообщение
  • ICQ

  • Похожие торренты
    Ответы
    Просмотры
    Последнее сообщение

Вернуться в Фильмы 2016 (новинки)

Кто сейчас на конференции

Зарегистрированные пользователи: kilinbel, leomartin, Nolimit

Ресурс не предоставляет электронные версии произведений, а занимается лишь коллекционированием и каталогизацией ссылок, присылаемых и публикуемых на форуме нашими читателями. Если вы являетесь правообладателем какого-либо представленного материала и не желаете чтобы ссылка на него находилась в нашем каталоге, свяжитесь с нами и мы незамедлительно удалим её. Файлы для обмена на трекере предоставлены пользователями сайта, и администрация не несёт ответственности за их содержание. Просьба не заливать файлы, защищенные авторскими правами, а также файлы нелегального содержания!
cron