Бабушка / Grandma (2015) BDRip

Киноновинки, новинки кинопроката, горячие новинки

Модератор: Модераторы видео

  • Статистика раздачи
Размер: 1.45 ГБ   |  Зарегистрирован: 09 фев 2016, 00:19   |   .torrent скачан: 12 раз
Сидеров: 327  [ 0 байт/сек ]     Личеров: 37  [ 0 байт/сек ]  
Список файлов : Кто скачал : Раздают : Скачивают : Кто благодарил : История : Не раздающие : Запрашивали сидеров : Внешние трекеры 
  

Бабушка / Grandma (2015) BDRip

Сообщение Админ » 09 фев 2016, 00:19

Бабушка / Grandma (2015) BDRip

Производство: США / 1821 Pictures, Depth of Field
Жанр: Драма, Комедия

Режиссер: Пол Вайц
Продюсер: Терри Дугас, Пэрис Касидокостас Латсис, Эндрю Миано
Актеры: Лили Томлин, Джулия Гарнер, Марша Гей Харден, Джуди Грир, Лаверн Кокс, Элизабет Пенья, Нат Вулф, Сара Бёрнс, Джон Чо, Сэм Эллиотт

Описание:
Находясь в солидном возрасте, Элль Рид не сдаёт собственных позиций. Подумаешь, она на пенсии и не занимается больше в научном центре. Героиня сохранила былую остроту юмора и стойкость к жизненным неурядицам. Теперь она вовсю наслаждается обитанием в тихом и спокойном городке, как и положено бабушке.



Возраст: 18+
Рейтинг MPAA: R
Дата мировой премьеры: 30 января 2015

Продолжительность: 01:18:44
Качество видео: BDRip
Перевод: Многоголосый закадровый, профессиональный
Озвучка / Автор перевода: iTunes
Язык субтитров: Английский
Вид субтитров: Отдельным файлом
Реклама: Отсутствует

Видео: Xvid, 1794 Kbps, 720x384
Аудио 1: AC3, 6 ch, 384 Kb/s - Русский
Аудио 2: AC3, 6 ch, 448 Kb/s - Английский
Код:
Код: Выделить всё
General
Complete name                            : D:\Фильмы\Grandma (2015) BDRip\Grandma (2015) BDRip .avi
Format                                   : AVI
Format/Info                              : Audio Video Interleave
Format profile                           : OpenDML
File size                                : 1.45 GiB
Duration                                 : 1h 18mn
Overall bit rate                         : 2 633 Kbps
Writing application                      : XviD4PSP 6.0 / 54.29.105

Video
ID                                       : 0
Format                                   : xvid
Codec ID                                 : xvid
Duration                                 : 1h 18mn
Bit rate                                 : 1 782 Kbps
Width                                    : 720 pixels
Height                                   : 384 pixels
Display aspect ratio                     : 1.85:1
Frame rate                               : 23.976 fps
Scan type                                : Progressive
Bits/(Pixel*Frame)                       : 0.269
Stream size                              : 1 004 MiB (68%)

Audio #1
ID                                       : 1
Format                                   : AC-3
Format/Info                              : Audio Coding 3
Mode extension                           : CM (complete main)
Format settings, Endianness              : Big
Codec ID                                 : 2000
Duration                                 : 1h 18mn
Bit rate mode                            : Constant
Bit rate                                 : 384 Kbps
Channel(s)                               : 6 channels
Channel positions                        : Front: L C R, Side: L R, LFE
Sampling rate                            : 48.0 KHz
Frame rate                               : 31.250 fps (1536 spf)
Bit depth                                : 16 bits
Compression mode                         : Lossy
Stream size                              : 216 MiB (15%)
Alignment                                : Aligned on interleaves
Interleave, duration                     : 32 ms (0.77 video frame)

Audio #2
ID                                       : 2
Format                                   : AC-3
Format/Info                              : Audio Coding 3
Mode extension                           : CM (complete main)
Format settings, Endianness              : Big
Codec ID                                 : 2000
Duration                                 : 1h 18mn
Bit rate mode                            : Constant
Bit rate                                 : 448 Kbps
Channel(s)                               : 6 channels
Channel positions                        : Front: L C R, Side: L R, LFE
Sampling rate                            : 48.0 KHz
Frame rate                               : 31.250 fps (1536 spf)
Bit depth                                : 16 bits
Compression mode                         : Lossy
Stream size                              : 252 MiB (17%)
Alignment                                : Aligned on interleaves
Interleave, duration                     : 32 ms (0.77 video frame)
Золотой глобус, 2016 год
Номинации (1):
Лучшая женская роль (Комедия или мюзикл) (Лили Томлин)

Скриншоты:



Время раздачи: 24/7 (круглосуточно)
   
Торрент: Зарегистрирован [09 фев 2016, 00:19] Скачать торрент
Скачать торрент
О MediaGet
[ Размер 15.33 КБ / Просмотров 87 ]

Статус:
 
Приватный: Нет (DHT включён)
Размер: 1.45 ГБ (1 554 900 018 байт)
   
Аватара пользователя

Администратор
Администратор
 
Раздал: 2.29 ПБ
Скачал: 1.01 ПБ
Ратио: 2.266
Сообщения: 2967
Зарегистрирован: 07 май 2010, 17:29
Medals: 1
Лучший релиз за месяц (1)
  • Личное сообщение
  • ICQ

  • Похожие торренты
    Ответы
    Просмотры
    Последнее сообщение

Вернуться в Фильмы 2016 (новинки)

Кто сейчас на конференции

Зарегистрированные пользователи: Dimkinzx, EAst, kabarda07, kilinbel, Nolimit, Starsnerus x 1, viRUSik

Ресурс не предоставляет электронные версии произведений, а занимается лишь коллекционированием и каталогизацией ссылок, присылаемых и публикуемых на форуме нашими читателями. Если вы являетесь правообладателем какого-либо представленного материала и не желаете чтобы ссылка на него находилась в нашем каталоге, свяжитесь с нами и мы незамедлительно удалим её. Файлы для обмена на трекере предоставлены пользователями сайта, и администрация не несёт ответственности за их содержание. Просьба не заливать файлы, защищенные авторскими правами, а также файлы нелегального содержания!
cron