Хуже, чем ложь / Misconduct (2016) WEB-DL [H.264/720p-LQ]

Киноновинки, новинки кинопроката, горячие новинки

Модератор: Модераторы видео

  • Статистика раздачи
Размер: 3.39 ГБ   |  Зарегистрирован: 07 фев 2016, 15:29   |   .torrent скачан: 17 раз
Сидеров: 939  [ 0 байт/сек ]     Личеров: 17  [ 0 байт/сек ]  
Список файлов : Кто скачал : Раздают : Скачивают : Кто благодарил : История : Не раздающие : Запрашивали сидеров : Внешние трекеры 
  

Хуже, чем ложь / Misconduct (2016) WEB-DL [H.264/720p-LQ]

Сообщение Боцман » 07 фев 2016, 15:30

Хуже, чем ложь / Misconduct (2016) WEB-DL [H.264/720p-LQ]

Производство: США / Mike and Marty Productions
Жанр: Триллер, Драма

Режиссер: Шинтаро Шимосава
Продюсер: Эллен С. Уондер, Эрик Бреннер, Бэрри Брукер
Актеры: Элис Ив Малин Акерман Джулия Стайлз Аль Пачино Глен Пауэлл Энтони Хопкинс Джош Дюамель Ли Бён Хон Крис Маркетт Шона Гастян

Описание:
Когда амбициозный молодой юрист берется за большое дело против влиятельного и безжалостного исполнительного директора крупной фармацевтической компании, он оказывается втянут в мир шантажа и коррупции.


Дата мировой премьеры: 5 февраля 2016

Продолжительность: 01:45:53
Качество видео: WEB-DL (720p-LQ)
Перевод: Двухголосый закадровый, любительский (den904 & DeadSno)
Язык субтитров: Английский
Вид субтитров: Вшитые, отключаемые
Реклама: Отсутствует

Видео: AVC/H.264, 1280x532, ~3910 kbps
Аудио1: AC3, 2 ch, 192 kbps, CBR | Русский
Аудио2: AC3, 6 ch, 384 kbps, CBR | Английский
Семпл: Скачать
Код:
Код: Выделить всё
Общее
Уникальный идентификатор                 : 229358013778580679071351089645640980827 (0xAC8CBF25E7B020AF8D46977C27DB995B)
Полное имя                               : F:\торрент файлы\Misconduct.2016.L2.WEB-DL.720p.mkv
Формат                                   : Matroska
Версия формата                           : Version 2
Размер файла                             : 3,39 Гбайт
Продолжительность                        : 1 ч. 45 м.
Общий поток                              : 4577 Кбит/сек
Дата кодирования                         : UTC 2016-02-07 02:14:26
Программа кодирования                    : mkvmerge v7.8.0 ('River Man') 32bit built on Apr  3 2015 12:11:22
Библиотека кодирования                   : libebml v1.3.1 + libmatroska v1.4.2

Видео
Идентификатор                            : 1
Формат                                   : AVC
Формат/Информация                        : Advanced Video Codec
Профиль формата                          :
Параметр CABAC формата                   : Нет
Параметр ReFrames формата                : 2 кадра
Идентификатор кодека                     : V_MPEG4/ISO/AVC
Продолжительность                        : 1 ч. 45 м.
Битрейт                                  : 3910 Кбит/сек
Ширина                                   : 1280 пикселей
Высота                                   : 532 пикселя
Соотношение сторон                       : 2,40:1
Режим частоты кадров                     : Постоянный
Частота кадров                           : 23,976 кадра/сек
Цветовое пространство                    : YUV
Субдискретизация насыщенности            : 4:2:0
Битовая глубина                          : 8 бит
Тип развёртки                            : Прогрессивная
Бит/(Пиксели*Кадры)                      : 0.239
Размер потока                            : 2,89 Гбайт (85%)
Язык                                     : English
Default                                  : Да
Forced                                   : Нет
Цветовой диапазон                        : Limited
Основные цвета                           : BT.709
Характеристики трансфера                 : BT.709
Коэффициенты матрицы                     : BT.709

Аудио #1
Идентификатор                            : 2
Формат                                   : AC-3
Формат/Информация                        : Audio Coding 3
Расширение режима                        : CM (complete main)
Параметр Endianness формата              : Big
Идентификатор кодека                     : A_AC3
Продолжительность                        : 1 ч. 45 м.
Вид битрейта                             : Постоянный
Битрейт                                  : 192 Кбит/сек
Каналы                                   : 2 канала
Расположение каналов                     : Front: L R
Частота                                  : 48,0 КГц
Частота кадров                           : 31,250 кадров/сек (1536 spf)
Метод сжатия                             : С потерями
Размер потока                            : 145 Мбайт (4%)
Язык                                     : Russian
Default                                  : Да
Forced                                   : Нет

Аудио #2
Идентификатор                            : 3
Формат                                   : AC-3
Формат/Информация                        : Audio Coding 3
Расширение режима                        : CM (complete main)
Параметр Endianness формата              : Big
Идентификатор кодека                     : A_AC3
Продолжительность                        : 1 ч. 45 м.
Вид битрейта                             : Постоянный
Битрейт                                  : 384 Кбит/сек
Каналы                                   : 6 каналов
Расположение каналов                     : Front: L C R, Side: L R, LFE
Частота                                  : 48,0 КГц
Частота кадров                           : 31,250 кадров/сек (1536 spf)
Метод сжатия                             : С потерями
Размер потока                            : 291 Мбайт (8%)
Язык                                     : English
Default                                  : Нет
Forced                                   : Нет

Текст
Идентификатор                            : 4
Формат                                   : UTF-8
Идентификатор кодека                     : S_TEXT/UTF8
Идентификатор кодека/Информация          : UTF-8 Plain Text
Язык                                     : English
Default                                  : Нет
Forced                                   : Нет

Меню
00:00:00.000                             : en:1
00:09:33.000                             : en:2
00:20:05.000                             : en:3
00:28:59.000                             : en:4
00:39:05.000                             : en:5
00:50:31.000                             : en:6
00:59:16.000                             : en:7
01:09:55.000                             : en:8
01:18:44.000                             : en:9
01:29:03.000                             : en:10
01:41:51.000                             : en:11

Скриншоты:



Время раздачи: с 11:00 до 16:00 (до появления первых 3-5 скачавших)
   
Торрент: Зарегистрирован [07 фев 2016, 15:29] Скачать торрент
Скачать торрент
О MediaGet
[ Размер 17.64 КБ / Просмотров 90 ]

Статус:
 
Приватный: Нет (DHT включён)
Размер: 3.39 ГБ (3 634 981 441 байт)
   
Хочешь стать частью команды MZ-Tracker?
Запишись
ТУТ
Аватара пользователя

Супермодератор
Супермодератор
 
Раздал: 12.57 ГБ
Скачал: 907.51 ГБ
Ратио: 0.017
Сообщения: 4359
Фото: 292
Зарегистрирован: 19 июн 2008, 23:00

Вернуться в Фильмы 2016 (новинки)

Кто сейчас на конференции

Зарегистрированные пользователи: Dom_777, kilinbel, leomartin, Nolimit, sergej-asd

Ресурс не предоставляет электронные версии произведений, а занимается лишь коллекционированием и каталогизацией ссылок, присылаемых и публикуемых на форуме нашими читателями. Если вы являетесь правообладателем какого-либо представленного материала и не желаете чтобы ссылка на него находилась в нашем каталоге, свяжитесь с нами и мы незамедлительно удалим её. Файлы для обмена на трекере предоставлены пользователями сайта, и администрация не несёт ответственности за их содержание. Просьба не заливать файлы, защищенные авторскими правами, а также файлы нелегального содержания!
cron