Убийственная игра / Kill Game (2015) DVDRip [VO]

Киноновинки, новинки кинопроката, горячие новинки

Модератор: Модераторы видео

  • Статистика раздачи
Размер: 1.37 ГБ   |  Зарегистрирован: 02 фев 2016, 01:28   |   .torrent скачан: 11 раз
Сидеров: 65  [ 0 байт/сек ]     Личеров: 2  [ 0 байт/сек ]  
Список файлов : Кто скачал : Раздают : Скачивают : Кто благодарил : История : Не раздающие : Запрашивали сидеров : Внешние трекеры 
  

Убийственная игра / Kill Game (2015) DVDRip [VO]

Сообщение Админ » 02 фев 2016, 01:28

Убийственная игра / Kill Game (2015) DVDRip

No one is laughing now

Производство: США
Жанр: Ужасы

Режиссер: Роберт Мирнс
Продюсер: Марти Мюррэй, Джастин Несбитт, Эри Голан
Актеры: Пирсон Фод, Джо Адлер, Лаура Эшли Сэмюэлс, Майкл Галанте, Музам Маккар, Сари Санчез, Райан Карр, Джей Дисней, Хилари Андерсон, Томми Бердмор

Описание:
Спустя 5 лет после того, как школьная шутка обернулась смертью, группу друзей начинает терроризировать убийца в маске.


Дата мировой премьеры: 5 декабря 2015

Продолжительность: 01:41:58
Качество видео: DVDRip
Перевод: Одноголосый закадровый, любительский
Озвучка / Автор перевода: Васька Куролесов по субтитрам Северный
Примечание: Присутствует нецензурная лексика

Видео: Xvid, 720x400, ~1720 Кбит/сек
Аудио: AC3, 2 ch, 192 Кбит/сек, CBR
Код:
Код: Выделить всё
Формат                                   : AVI
Формат/Информация                        : Audio Video Interleave
Размер файла                             : 1,37 Гбайт
Продолжительность                        : 1 ч. 41 м.
Общий поток                              : 1922 Кбит/сек
Программа кодирования                    : VirtualDubMod 1.5.10.3 | [url=http://www.virtualdub-fr.org]www.virtualdub-fr.org[/url] || (build 2550/release)
Библиотека кодирования                   : VirtualDubMod build 2550/release

Видео
Идентификатор                            : 0
Формат                                   : MPEG-4 Visual
Профиль формата                          : Advanced Simple@L5
Параметр BVOP формата                    : 1
Параметр QPel формата                    : Нет
Параметр GMC формата                     : Без точки перехода
Параметр матрицы формата                 : Default (MPEG)
Идентификатор кодека                     : XVID
Идентификатор кодека/Подсказка           : XviD
Продолжительность                        : 1 ч. 41 м.
Битрейт                                  : 1720 Кбит/сек
Ширина                                   : 720 пикселей
Высота                                   : 400 пикселей
Соотношение сторон                       : 16:9
Частота кадров                           : 23,976 кадра/сек
Цветовое пространство                    : YUV
Субдискретизация насыщенности            : 4:2:0
Битовая глубина                          : 8 бит
Тип развёртки                            : Прогрессивная
Метод сжатия                             : С потерями
Бит/(Пиксели*Кадры)                      : 0.249
Размер потока                            : 1,23 Гбайт (90%)
Библиотека кодирования                   : XviD 1.2.1 (UTC 2008-12-04)

Аудио
Идентификатор                            : 1
Формат                                   : AC-3
Формат/Информация                        : Audio Coding 3
Расширение режима                        : CM (complete main)
Параметр Endianness формата              : Big
Идентификатор кодека                     : 2000
Продолжительность                        : 1 ч. 41 м.
Вид битрейта                             : Постоянный
Битрейт                                  : 192 Кбит/сек
Каналы                                   : 2 канала
Расположение каналов                     : Front: L R
Частота                                  : 48,0 КГц
Метод сжатия                             : С потерями
Размер потока                            : 140 Мбайт (10%)
Выравнивание                             : Разделение по промежуткам
Продолжительность промежутка             : 42  мс. (1,00 видеокадр)
Время предзагрузки промежутка            : 500  мс.

Скриншоты:


Время раздачи: 22:05-05:00 (MSK) до первых скачавших
   
Торрент: Зарегистрирован [02 фев 2016, 01:28] Скачать торрент
Скачать торрент
О MediaGet
[ Размер 14.48 КБ / Просмотров 79 ]

Статус:
 
Приватный: Нет (DHT включён)
Размер: 1.37 ГБ (1 469 536 256 байт)
   
Аватара пользователя

Администратор
Администратор
 
Раздал: 2.29 ПБ
Скачал: 1.01 ПБ
Ратио: 2.266
Сообщения: 2967
Зарегистрирован: 07 май 2010, 17:29
Medals: 1
Лучший релиз за месяц (1)
  • Личное сообщение
  • ICQ

Вернуться в Фильмы 2016 (новинки)

Кто сейчас на конференции

Зарегистрированные пользователи: Dimkinzx, EAst, kabarda07, kilinbel, Nolimit, Starsnerus x 1, viRUSik

Ресурс не предоставляет электронные версии произведений, а занимается лишь коллекционированием и каталогизацией ссылок, присылаемых и публикуемых на форуме нашими читателями. Если вы являетесь правообладателем какого-либо представленного материала и не желаете чтобы ссылка на него находилась в нашем каталоге, свяжитесь с нами и мы незамедлительно удалим её. Файлы для обмена на трекере предоставлены пользователями сайта, и администрация не несёт ответственности за их содержание. Просьба не заливать файлы, защищенные авторскими правами, а также файлы нелегального содержания!
cron